Видео


Сообщение

Видео Restless Vol. 3 by Dan Hauss [2010, Фокусы, DVDRip, ENG] (Видеоурок)

Сообщение asder » 15 май 2013, 23:01

Restless Vol. 3 by Dan Hauss
Страна: США
Тематика: Фокусы
Тип раздаваемого материала: Видеоурок
Продолжительность: 01:57:32
Год выпуска: 2010
Язык: Английский
Перевод: Отсутствует
Описание: Фокусы с картами, шнурками, монетами и т.д.
Первую и вторую часть вы можете найти здесь и здесь
Доп. информация: Превью и описание на английском
Список фокусов
Puff/Smoke
Coin and Marker Transpo
Torisit 2
Footloose
Lint
Kiss The Table
Fake Take From Box
Качество: DVDRip
Формат: AVI
Видео кодек: VC-1
Аудио кодек: WMA
Видео: VC-1, 560x308, (16:9), 653kbps, 23,976fps
Аудио: WMA, 64kbps, 44,1kHz, 2ch
Скриншоты


MediaInfo
Код:
Код: Выделить всё
General
Complete name                            : C:\Users\alex\Downloads\Раздачи\Restless(vol3).avi
Format                                   : Windows Media
File size                                : 600 MiB
Duration                                 : 1h 57mn
Overall bit rate mode                    : Constant
Overall bit rate                         : 714 Kbps
Maximum Overall bit rate                 : 725 Kbps
Movie name                               : Restless (volume 3)
Performer                                : Dan Hauss
Recorded date                            : 2010
Encoded date                             : UTC 2010-04-13 01:07:19.664
SfOriginalFPS                            : 239760
intro_SfMarkerDuration_0                 : 0
smoke_SfMarkerDuration_1                 : 0
coin and marker_SfMarkerDuration_2       : 0
torisit2_SfMarkerDuration_3              : 0
_SfMarkerDuration_4                      : 0
footloose_SfMarkerDuration_5             : 0
_SfMarkerDuration_6                      : 0
_SfMarkerDuration_7                      : 0
_SfMarkerDuration_8                      : 0
lint_SfMarkerDuration_9                  : 0
_SfMarkerDuration_10                     : 0
kiss the table_SfMarkerDuration_11       : 0
fake take_SfMarkerDuration_12            : 0
creating magic_SfMarkerDuration_13       : 0
credits_SfMarkerDuration_14              : 0
outtakes_SfMarkerDuration_15             : 0
end_SfMarkerDuration_16                  : 0
Author/Url                               : http://www.papercranemagic.com
MediaFoundationVersion                   : 2.112[br][/br]Video
ID                                       : 2
Format                                   : VC-1
Format profile                           : MP@ML
Codec ID                                 : WMV3
Codec ID/Info                            : Windows Media Video 9
Codec ID/Hint                            : WMV3
Description of the codec                 : Windows Media Video 9
Duration                                 : 1h 57mn
Bit rate mode                            : Constant
Bit rate                                 : 653 Kbps
Width                                    : 560 pixels
Height                                   : 308 pixels
Display aspect ratio                     : 16:9
Frame rate                               : 23.976 fps
Bit depth                                : 8 bits
Scan type                                : Progressive
Compression mode                         : Lossy
Bits/(Pixel*Frame)                       : 0.158
Stream size                              : 549 MiB (91%)[br][/br]Audio
ID                                       : 1
Format                                   : WMA
Format version                           : Version 2
Codec ID                                 : 161
Codec ID/Info                            : Windows Media Audio
Description of the codec                 : Windows Media Audio 9.2 -  64 kbps, 44 kHz, stereo (A/V) 1-pass CBR
Duration                                 : 1h 57mn
Bit rate mode                            : Constant
Bit rate                                 : 64.0 Kbps
Channel(s)                               : 2 channels
Sampling rate                            : 44.1 KHz
Bit depth                                : 16 bits
Stream size                              : 53.8 MiB (9%)[br][/br]Menu

Постеры

Соцсети

 

Статистика

Автор: asder
Добавлен: 15 май 2013, 23:01
Размер: 600.07 МБ
Размер: 629 223 733 байт
Сидеров: 25
Личеров: 4
Скачали: 3
Здоровье: 100%
Раздающих: 100%
Скорость скачивания: 0 байт/сек
Скорость раздачи: 0 байт/сек
Последний сидер: 15 дней 16 часов 5 минут 2 секунды назад
Последний личер: 15 дней 16 часов 5 минут 2 секунды назад
Приватный: Нет (DHT включён)
Скачать торрент
Скачать торрент
[ Размер 12.31 КБ / Просмотров 9 ]

Поделиться


Вернуться в Фокусы и трюки