Видео


Сообщение

Видео Open Triumph by Dani DaOrtiz [2011, Фокусы, HDRip, ENG] (Видеоурок)

Сообщение Таточка » 20 май 2013, 23:05

Open Triumph by Dani DaOrtiz
Страна: USA
Тематика: Фокусы
Тип раздаваемого материала: Видеоурок
Продолжительность: 00:10:54
Год выпуска: 2011
Язык: Английский
Перевод: Отсутствует
Описание: Within our library of books we've read countless variations of Triumph, many of which we feel are superior to Vernon's original handling published in The Stars of Magic. However, Open Triumph by Dani DaOrtiz is as open, fair and visual as we have ever seen. Wintess the ingenious thinking this spanish master of sleight of hand puts into all his magic with this amazing effect. Don't close your eyes. (с) D&D.
Описание на русском: Вариация классического Триумфа Дая Вернона от D&D и Дени ДаОртиза.
Видюшечка: http://vimeo.com/22117316
Качество: HDRip
Формат: MKV
Отчет MediaInfo
General
Complete name : \\Dani DaOrtiz - Open Triumph.mkv
Format : Matroska
File size : 85.7 MiB
Duration : 10mn 54s
Overall bit rate : 1 099 Kbps
Writing application : Lavf51.12.1
Writing library : Lavf51.12.1
Video
ID : 1
Format : AVC
Format/Info : Advanced Video Codec
Format profile : Baseline@L1.3
Format settings, CABAC : No
Format settings, ReFrames : 1 frame
Muxing mode : Container profile=Unknown@1.3
Codec ID : V_MPEG4/ISO/AVC
Duration : 10mn 54s
Bit rate : 949 Kbps
Width : 1 280 pixels
Height : 720 pixels
Display aspect ratio : 16:9
Frame rate : 29.970 fps
Color space : YUV
Chroma subsampling : 4:2:0
Bit depth : 8 bits
Scan type : Progressive
Bits/(Pixel*Frame) : 0.034
Stream size : 74.0 MiB (86%)
Language : English
Audio
ID : 2
Format : MPEG Audio
Format version : Version 1
Format profile : Layer 3
Mode : Joint stereo
Mode extension : MS Stereo
Codec ID : A_MPEG/L3
Codec ID/Hint : MP3
Duration : 10mn 54s
Bit rate mode : Constant
Bit rate : 128 Kbps
Channel(s) : 2 channels
Sampling rate : 44.1 KHz
Bit depth : 16 bits
Stream size : 9.99 MiB (12%)
Writing library : LAME3.97
Language : English
Скриншоты

Постеры

Соцсети

 

Статистика

Автор: Таточка
Добавлен: 20 май 2013, 23:05
Размер: 85.72 МБ
Размер: 89 879 043 байт
Сидеров: 70
Личеров: 16
Скачали: 7
Здоровье: 100%
Раздающих: 100%
Скорость скачивания: 0 байт/сек
Скорость раздачи: 0 байт/сек
Последний сидер: 7 дней 3 часа 45 минут 58 секунд назад
Последний личер: 16 дней 4 часа 48 минут 45 секунд назад
Приватный: Нет (DHT включён)
Скачать торрент
Скачать торрент
[ Размер 13.88 КБ / Просмотров 49 ]

Поделиться


Вернуться в Фокусы и трюки