Видео


Сообщение

Видео Aaron Fisher - The Revolution featuring Helter Skelter [2010, Фокусы, DVDRip, ENG] (Видеоурок)

Сообщение Таточка » 20 май 2013, 23:08

Aaron Fisher - The Revolution featuring Helter Skelter
Страна: США
Тематика: Фокусы
Тип раздаваемого материала: Видеоурок
Продолжительность: 01:20:02
Год выпуска: 2010
Язык: Английский
Перевод: Отсутствует
Описание: http://www.aaronfishermagic.com/revolution.htm
На этом диске Аарон с чрезвычайными подробностями объясняет два фокуса и необходимые слайты:
- Revolution #9
- Helter Skelter
English Description
First developed by Aaron in 1994, The Revolution is perhaps the easiest, most visual color change ever invented. This new DVD presents two distinct miracles made possible by this incredibly easy, visual transformation.
Helter Skelter
Simply the most astounding, easy to perform color changing deck you'll ever see — and it ends clean! This effect first appeared in The Paper Engine, but Aaron has been guarding this new, incredibly simple method for years. All the difficult sleight of hand has been removed — that means if you can do a double turnover, you're ready for this trick right now.
Revolution #9
You can perform this effect with any deck, any time. A wave of your hand causes a face-down selection to visibly reverse. But that's just the beginning. With another wave, the entire deck turns face-down. Unlike the method taught in The Paper Engine, this new approach uses only basic sleight of hand. You'll have to see the effect in action to believe it!
Over a decade in the making, The Revolution featuring Helter Skelter completes The Paper Engine Trilogy with Aaron's strongest release to date. Aaron has been performing these effects for over 10 years.That means this magic is tested, verified and trustworthy. You'll LOVE performing the magic on this DVD.
Join the Campers!
This DVD will give you a brand new experience. Much of this production was shot live at Sorcerer's Safari Magic Camp — the world's finest youth magic program. After you learn the effects on the DVD, you'll get a front row seat to work with Aaron along with the other campers. You'll hear real questions — and get information that will make watching this DVD the next best thing to being there.
The Effects Are Just the Beginning
As always, Aaron will show you how to put it all together. In addition to Helter Skelter and Revolution #9, you'll learn invaluable lessons about how to clean-up tricks, switch decks on the fly and recover from any conceivable situation. After you see the DVD, you'll use this information every time you do card magic.
MediaInfo
General
Complete name : C:\Users\Админ\Documents\Magic\Aaron Fisher\Aaron Fisher - Revolution.avi
Format : AVI
Format/Info : Audio Video Interleave
File size : 939 MiB
Duration : 1h 20mn
Overall bit rate : 1 640 Kbps
Writing application : Lavf52.57.1
Video
ID : 0
Format : xvid
Codec ID : xvid
Duration : 1h 20mn
Bit rate : 1 499 Kbps
Width : 720 pixels
Height : 480 pixels
Display aspect ratio : 3:2
Frame rate : 29.970 fps
Standard : NTSC
Bits/(Pixel*Frame) : 0.145
Stream size : 858 MiB (91%)
Audio
ID : 1
Format : MPEG Audio
Format version : Version 1
Format profile : Layer 3
Mode : Joint stereo
Mode extension : MS Stereo
Codec ID : 55
Codec ID/Hint : MP3
Duration : 1h 20mn
Bit rate mode : Constant
Bit rate : 128 Kbps
Channel(s) : 2 channels
Sampling rate : 44.1 KHz
Compression mode : Lossy
Stream size : 73.3 MiB (8%)
Alignment : Aligned on interleaves
Interleave, duration : 26 ms (0.78 video frame)
Writing library : LAME3.98.2
Качество: DVDRip
Формат: AVI
Видео кодек: XviD
Аудио кодек: MP3
Видео: Video: Xvid 720x480 29.97fps Bit rate : 1 499 Kbps
Аудио: Audio: MPEG Audio Layer 3 44100Hz stereo 128kbps
Скриншоты


Постеры

Соцсети

 

Статистика

Автор: Таточка
Добавлен: 20 май 2013, 23:08
Размер: 938.86 МБ
Размер: 984 471 110 байт
Сидеров: 24
Личеров: 4
Скачали: 3
Здоровье: 100%
Раздающих: 100%
Скорость скачивания: 0 байт/сек
Скорость раздачи: 0 байт/сек
Последний сидер: 16 дней 4 часа 59 минут 56 секунд назад
Последний личер: 16 дней 4 часа 59 минут 56 секунд назад
Приватный: Нет (DHT включён)
Скачать торрент
Скачать торрент
[ Размер 18.88 КБ / Просмотров 11 ]

Поделиться


Вернуться в Фокусы и трюки