Видео


Сообщение

Видео World's Greatest Magic - Money Magic [2005, Фокусы с деньгами, DVDRip, ENG] (Видеоурок)

Сообщение Таточка » 20 май 2013, 23:09

World's Greatest Magic - Money Magic
Страна: США
Тематика: Фокусы с деньгами
Тип раздаваемого материала: Видеоурок
Продолжительность: 01:50:48
Год выпуска: 2005
Язык: Английский
Перевод: Отсутствует
Описание: 17 фокусов с купюрами: восстановления, подмены, трансформации и т.д.
Список фокусов
BeSwitched
The Bill Tear
The Greatest Illusion Ever Created Money
Torn and Restored Bill
Presidential Expression
Suspended Funds
Acrobaticlips
Now U Z It
Dirty T & R
Traveling Expenses
Rubik's Dollar Bill
Growing Toothpick
The Bill Roll
The Burned Bill
Fast Eddie Smith
Bunny Bill
Paper Money
Доп. информация: Описание на английском и превью
Качество: DVDRip
Формат: AVI
Видео кодек: XviD
Аудио кодек: AC3
Видео: XviD, 464x362, (4:3), 742kbps, 29,970fps
Аудио: AC3, 192kbps, 49kHz, 2ch
Скриншоты


MediaInfo
Код:
Код: Выделить всё
Общее
Полное имя                               : C:\Users\msi\Downloads\Раздачи\Worlds Greatest Magic Series\WGM - Money Magic\Worlds Greatest Magic - Money Magic.avi
Формат                                   : AVI
Формат/Информация                        : Audio Video Interleave
Размер файла                             : 747 Мбайт
Продолжительность                        : 1 ч. 50 м.
Общий поток                              : 942 Кбит/сек
Программа кодирования                    : VirtualDubMod 1.5.4.1 (build 2178/release)
Библиотека кодирования                   : VirtualDubMod build 2178/release[br][/br]Видео
Идентификатор                            : 0
Формат                                   : MPEG-4 Visual
Профиль формата                          : Advanced Simple@L5
Параметр BVOP формата                    : 1
Параметр QPel формата                    : Нет
Параметр GMC формата                     : Без точки перехода
Параметр матрицы формата                 : Выборочная
Идентификатор кодека                     : XVID
Идентификатор кодека/Подсказка           : XviD
Продолжительность                        : 1 ч. 50 м.
Битрейт                                  : 742 Кбит/сек
Ширина                                   : 464 пикселя
Высота                                   : 352 пикселя
Соотношение сторон                       : 4:3
Частота кадров                           : 29,970 кадров/сек
Цветовое пространство                    : YUV
Субдискретизация насыщенности            : 4:2:0
Битовая глубина                          : 8 бит
Тип развёртки                            : Прогрессивная
Метод сжатия                             : С потерями
Бит/(Пиксели*Кадры)                      : 0.152
Размер потока                            : 588 Мбайт (79%)
Библиотека кодирования                   : XviD 1.0.3 (UTC 2004-12-20)[br][/br]Аудио
Идентификатор                            : 1
Формат                                   : AC-3
Формат/Информация                        : Audio Coding 3
Профиль формата                          : Dolby Digital
Расширение режима                        : CM (complete main)
Параметр Endianness формата              : Big
Идентификатор кодека                     : 2000
Продолжительность                        : 1 ч. 50 м.
Вид битрейта                             : Постоянный
Битрейт                                  : 192 Кбит/сек
Каналы                                   : 2 канала
Расположение каналов                     : Front: L R
Частота                                  : 48,0 КГц
Битовая глубина                          : 16 бит
Метод сжатия                             : С потерями
Размер потока                            : 152 Мбайт (20%)
Выравнивание                             : Разделение по промежуткам
Продолжительность промежутка             : 96  мс. (2,88 видеокадра)
Время предзагрузки промежутка            : 96  мс.
Язык                                     : English

Постеры

Соцсети

 

Статистика

Автор: Таточка
Добавлен: 20 май 2013, 23:09
Размер: 746.51 МБ
Размер: 782 776 320 байт
Сидеров: 328
Личеров: 12
Скачали: 8
Здоровье: 100%
Раздающих: 100%
Скорость скачивания: 0 байт/сек
Скорость раздачи: 0 байт/сек
Последний сидер: 14 дней 8 часов 44 минуты 42 секунды назад
Последний личер: 14 дней 8 часов 44 минуты 42 секунды назад
Приватный: Нет (DHT включён)
Скачать торрент
Скачать торрент
[ Размер 15.19 КБ / Просмотров 30 ]

Поделиться


Вернуться в Фокусы и трюки