Видео


Сообщение

Видео World's Greatest Magic - Bill In Lemon [2005, Фокусы, DVDRip, ENG] (Видеоурок)

Сообщение Таточка » 20 май 2013, 23:09

World's Greatest Magic - Bill In Lemon
Страна: США
Тематика: Фокусы
Тип раздаваемого материала: Видеоурок
Продолжительность: 01:49:07
Год выпуска: 2005
Язык: Английский
Перевод: Отсутствует
Описание: Пять вариаций классического фокуса "купюра в лимоне". Есть вариация для сцены, close-up, для бара, вариация с картой.
Список фокусов и фокусников
Counterfeit Money - Bill Malone
Bill in the Lemon - Doc Eason
Bill to Orange - Fielding West
Card in the Lemon - J. J. Sanvert
Bill in Lemon - Ted Lesley
Доп. информация: Превью и описание на английском
Качество: DVDRip
Формат: AVI
Видео кодек: DivX
Аудио кодек: MP3
Видео: DivX, 720x480, (3:2), 1200kbps, 29,970fps
Аудио: MP3, 128kbps, 48kHz, 2ch
Скриншоты


MediaInfo
Код:
Код: Выделить всё
General
Complete name                            : C:\Users\alex\Downloads\Раздачи\Worlds Greatest Magic Series\WGM - The Bill In The Lemon\The Worlds Greatest Magic - The Bill In The Lemon (DVD Rip).avi
Format                                   : AVI
Format/Info                              : Audio Video Interleave
File size                                : 1.02 GiB
Duration                                 : 1h 49mn
Overall bit rate                         : 1 342 Kbps[br][/br]Video
ID                                       : 0
Format                                   : MPEG-4 Visual
Format profile                           : Simple@L1
Format settings, BVOP                    : No
Format settings, QPel                    : No
Format settings, GMC                     : No warppoints
Format settings, Matrix                  : Default (H.263)
Codec ID                                 : DIVX
Codec ID/Info                            : Project Mayo
Codec ID/Hint                            : DivX 4
Duration                                 : 1h 49mn
Source duration                          : 1h 49mn
Bit rate                                 : 1 200 Kbps
Width                                    : 720 pixels
Height                                   : 480 pixels
Display aspect ratio                     : 3:2
Frame rate                               : 29.970 fps
Standard                                 : NTSC
Color space                              : YUV
Chroma subsampling                       : 4:2:0
Bit depth                                : 8 bits
Scan type                                : Progressive
Compression mode                         : Lossy
Bits/(Pixel*Frame)                       : 0.116
Stream size                              : 937 MiB (89%)
Writing library                          : avc2.0.11.1110[br][/br]Audio
ID                                       : 1
Format                                   : MPEG Audio
Format version                           : Version 1
Format profile                           : Layer 3
Mode                                     : Joint stereo
Mode extension                           : MS Stereo
Codec ID                                 : 55
Codec ID/Hint                            : MP3
Duration                                 : 1h 49mn
Bit rate mode                            : Constant
Bit rate                                 : 128 Kbps
Channel(s)                               : 2 channels
Sampling rate                            : 48.0 KHz
Compression mode                         : Lossy
Stream size                              : 99.9 MiB (10%)
Alignment                                : Aligned on interleaves
Interleave, duration                     : 24 ms (0.72 video frame)

Постеры

Соцсети

 

Статистика

Автор: Таточка
Добавлен: 20 май 2013, 23:09
Размер: 1.02 ГБ
Размер: 1 098 262 692 байт
Сидеров: 22
Личеров: 7
Скачали: 3
Здоровье: 100%
Раздающих: 100%
Скорость скачивания: 0 байт/сек
Скорость раздачи: 0 байт/сек
Последний сидер: 14 дней 8 часов 46 минут 16 секунд назад
Последний личер: 14 дней 8 часов 46 минут 16 секунд назад
Приватный: Нет (DHT включён)
Скачать торрент
Скачать торрент
[ Размер 10.85 КБ / Просмотров 15 ]

Поделиться


Вернуться в Фокусы и трюки