Видео


Сообщение

Видео Специалист | Создание Wi - Fi сети малого офиса/домашней сети [2010] [converted] PCRec

Сообщение asder » 17 июл 2013, 21:25

Автор (режиссер): «Специалист»
Название: Создание Wi - Fi сети малого офиса/домашней сети [converted]
Год выпуска: 2010
Жанр: Обучающее видео
Продолжительность: 15:00:04
Качество видео: PCRec
Видеокодек: WMV9
Битрейт видео: Н/Д; 29.970 fps
Размер кадра: 1024х768
Аудиокодек: WMA
Битрейт аудио: Н/Д моно 44100 Гц

Описание:
Последнее время с развитием сетевых технологий все большее развитие получают беспроводные (Wi-Fi) сети. Такие сети обладают рядом преимуществ - простота развертывания, мобильность пользователей, легкая переносимость. Предлагаемый вебинар от учебного центра «Специалист» рассматривает наиболее важные моменты, связанные с развертыванием, настройкой, обеспечением безопасности таких сетей.
Материалы видеокурса предназначены для желающих самостоятельно наладить взаимодействие в домашней или офисной сети, а также обеспечить доступ в Internet при помощи одной из передовых бурно развивающихся технологий – DSL (вариант ADSL). Важной отличительной особенностью курса является направленность на обычного рядового пользователя ПК, который не обладает специфическими знаниями специалиста по корпоративным сетям.
Модуль 1. Основные принципы взаимодействия в локальных сетях. Типы и особенности беспроводных сетей.
• Сетевое взаимодействие с использованием IP-протокола
• Особенности взаимодействия в беспроводной среде
• Типы соединения и необходимое оборудование
Модуль 2. Решения D-Link для создания беспроводной сети класса SOHO. Развертывание и основная настройка сети
• Типы оборудования
• Понятие Firmware. Влияние Firmware на параметры устройства и способ взаимодействия с ним
• Варианты взаимодействия с оборудованием. Средства Windows и средства разработчика оборудования. Выполнение настройки
• Лабораторная работа: Развертывание и настройка различных типов оборудования D-Link
- DSL-G604V
- DWL-G132
- DWL-G520
Модуль 3. Вопросы обеспечения эффективности и безопасности. Общие принципы подключения локальных сетей к Internet.
• Настройки, влияющие на эффективность работы
• Способы обеспечения безопасности
• Защита сетевого трафика. Типы шифрования
• Лабораторная работа: Создание защищенной сети и подключение к ней. Первое подключение. Последующие подключения. Сохранение параметров настройки сети. Перенос параметров настройки на другой компьютер
• Защита на основе протокола WEP
• Защита на основе протокола WPA (PSK)
• Скрытие SSID
• Создание диска с настройками
• Настройка с использованием диска настроек
Модуль 4. Технология DSL. Общие принципы и различные реализации. Оборудование D-Link для ADSL-подключений и его настройка
• Общие принципы технологии цифровой связи (DSL)
• Существующие стандарты DSL и их отличия
• ADSL – как наиболее часто используемый вариант
• Решения D-Link для организации ADSL-подключений
• Параметры, зависящие от провайдера и произвольно выбираемые
• Режимы работы устройств (Bridge, Static IP, VPN Client, PPPoE)
• Лабораторная работа: Настройка модемов разных типов на различных поставщиков услуг (МТУ-ИНТЕЛ, Центральный Телеграф, Инфолайн)
- SL-500T/RU
- DSL-300T/RU
- DSL-200/RU
Модуль 5. Подключение к локальной сети через Internet. Общие принципы. Конкретные реализации удаленных подключений.
• Опасность повышения привилегий в системе
• Принцип минимальных привилегий
• Рекомендации по уходу от атак, связанных повышением привилегий
• Атаки типа «отказ в обслуживании»
• Рекомендации по уходу от атак типа «Отказ в обслуживании»
Третье видео ведет себя неадекватно. Проблема в самом видео. Она была и в исходной раздаче. Некоторые плееры его не хотят открывать вовсе. Некоторые играют только звук. Некоторые работают с ним нормально.
У меня получилось открыть в SMPlayer. Видео показывает с самого начала. Перемотка не работает.
VLC плеер тоже нормально открывает, сначала как аудио, потом после 00:04:00 начинает показывать видео.
Totem сначала проигрывал только звук, потом вообще отказался играть.
Вообщем, пробуйте в разных плеерах. Иногда помогает, если ползунок поставить куда-нибудь на середину, а потом опять в начало.
General
Format : Windows Media
File size : 327 MiB
Duration : 6h 4mn
Overall bit rate mode : Variable
Overall bit rate : 125 Kbps
Maximum Overall bit rate : 6 959 Kbps
Encoded date : UTC 2013-07-12 18:00:55.564
Writing application : 5.7 Build 1172 / GoToMeeting
BitRateFrom the writer : 118791
Audio samples : 260669
Video samples : 80940
recording time : Сб, 13 июл 2013 01:54:46 Московское время (лето)

Video
ID : 2
Format : VC-1
Format profile : MP@HL
Codec ID : WMV3
Codec ID/Info : Windows Media Video 9
Codec ID/Hint : WMV3
Description of the codec : Windows Media Video 9
Duration : 6h 4mn
Bit rate mode : Variable
Bit rate : 573 Kbps
Width : 1 024 pixels
Height : 768 pixels
Display aspect ratio : 4:3
Frame rate : 29.970 fps
Bit depth : 8 bits
Scan type : Progressive
Compression mode : Lossy
Bits/(Pixel*Frame) : 0.024
Stream size : 1.46 GiB

Audio
ID : 1
Format : WMA
Format version : Version 2
Codec ID : 161
Codec ID/Info : Windows Media Audio
Description of the codec : Windows Media Audio 9.2 - 48 kbps, 44 kHz, mono 1-pass CBR
Duration : 6h 4mn
Bit rate mode : Constant
Bit rate : 48.0 Kbps
Channel(s) : 1 channel
Sampling rate : 44.1 KHz
Bit depth : 16 bits
Stream size : 125 MiB (38%)
General
Format : Windows Media
File size : 353 MiB
Duration : 5h 49mn
Overall bit rate mode : Variable
Overall bit rate : 141 Kbps
Maximum Overall bit rate : 4 910 Kbps
Encoded date : UTC 2013-07-12 22:11:26.808
Writing application : 5.7 Build 1172 / GoToMeeting
BitRateFrom the writer : 134513
Audio samples : 246621
Video samples : 101454
recording time : Сб, 13 июл 2013 06:56:02 Московское время (лето)

Video
ID : 2
Format : VC-1
Format profile : MP@HL
Codec ID : WMV3
Codec ID/Info : Windows Media Video 9
Codec ID/Hint : WMV3
Description of the codec : Windows Media Video 9
Duration : 5h 49mn
Bit rate mode : Variable
Bit rate : 536 Kbps
Width : 1 024 pixels
Height : 768 pixels
Display aspect ratio : 4:3
Frame rate : 29.970 fps
Bit depth : 8 bits
Scan type : Progressive
Compression mode : Lossy
Bits/(Pixel*Frame) : 0.023
Stream size : 1.31 GiB

Audio
ID : 1
Format : WMA
Format version : Version 2
Codec ID : 161
Codec ID/Info : Windows Media Audio
Description of the codec : Windows Media Audio 9.2 - 48 kbps, 44 kHz, mono 1-pass CBR
Duration : 5h 49mn
Bit rate mode : Constant
Bit rate : 48.0 Kbps
Channel(s) : 1 channel
Sampling rate : 44.1 KHz
Bit depth : 16 bits
Stream size : 120 MiB (34%)
General
Format : Windows Media
File size : 162 MiB
Duration : 3h 6mn
Overall bit rate mode : Variable
Overall bit rate : 122 Kbps
Maximum Overall bit rate : 4 589 Kbps
Encoded date : UTC 2013-07-13 03:21:07.519
Writing application : 5.7 Build 1172 / GoToMeeting
BitRateFrom the writer : 116594
Audio samples : 131660
Video samples : 42950
recording time : Сб, 13 июл 2013 09:22:29 Московское время (лето)

Video
ID : 2
Format : VC-1
Format profile : MP@HL
Codec ID : WMV3
Codec ID/Info : Windows Media Video 9
Codec ID/Hint : WMV3
Description of the codec : Windows Media Video 9
Bit rate mode : Variable
Bit rate : 524 Kbps
Width : 1 024 pixels
Height : 768 pixels
Display aspect ratio : 4:3
Frame rate mode : Variable
Nominal frame rate : 29.970 fps
Bit depth : 8 bits
Scan type : Progressive
Compression mode : Lossy

Audio
ID : 1
Format : WMA
Format version : Version 2
Codec ID : 161
Codec ID/Info : Windows Media Audio
Description of the codec : Windows Media Audio 9.2 - 48 kbps, 44 kHz, mono 1-pass CBR
Duration : 3h 6mn
Bit rate mode : Constant
Bit rate : 48.0 Kbps
Channel(s) : 1 channel
Sampling rate : 44.1 KHz
Bit depth : 16 bits
Stream size : 64.0 MiB (39%)
Скриншоты:

Постеры

Соцсети

 

Статистика

Автор: asder
Добавлен: 17 июл 2013, 21:25
Размер: 842.39 МБ
Размер: 883 308 113 байт
Сидеров: 12
Личеров: 6
Скачали: 3
Здоровье: 100%
Раздающих: 100%
Скорость скачивания: 0 байт/сек
Скорость раздачи: 0 байт/сек
Последний сидер: 7 дней 11 часов 24 минуты 12 секунд назад
Последний личер: 7 дней 11 часов 24 минуты 12 секунд назад
Приватный: Нет (DHT включён)
Сеть и безопасность Скачать торрент
Скачать торрент
[ Размер 17.46 КБ / Просмотров 15 ]

Поделиться


Вернуться в Сеть и безопасность