Видео


Сообщение

Видео Александр Kарташёв | Видеокурс Подключение wi-fi роутера [2013] PCRec

Сообщение asder » 17 июл 2013, 21:37

Александр Kарташёв | Видеокурс Подключение wi-fi роутера [2013] PCRec

Автор (режиссер): Александр Kарташёв
Название: Видеокурс Подключение wi-fi роутера
Год выпуска: 2013
Жанр: Компьютер,интернет
Продолжительность: 00:48:55
Качество видео: PCRec
Видеокодек: AVC
Битрейт видео: ~83,1 Кбит/сек
Размер кадра: 1280x720
Аудиокодек: AAC 2,0
Битрейт аудио: 53,5 Кбит/сек

Описание:
Знакома ситуация, когда срочно что-то нужно посмотреть в сети, а за компьютером сидит серьезный папа и слушает хиты 70х? Либо сестре надо писать реферат, а тебе хочется поиграть в Counter Strike? Бывает ведь, правда? Больше такого не будет!
Видеокурс посвящен тому, как настроить wifi роутер. На демонстрационном видео wifi опции показать и усвоить гораздо проще и быстрее, чем в текстовом варианте. Так пришла мысль cоздать подробный видеокурс о настройке роутера wifi.
Видеокурс Подключение wi-fi роутера
Видео
Идентификатор : 1
Формат : AVC
Формат/Информация : Advanced Video Codec
Профиль формата :
Параметр CABAC формата : Да
Параметр ReFrames формата : 4 кадра
Параметр GOP формата : M=1, N=75
Идентификатор кодека : avc1
Идентификатор кодека/Информация : Advanced Video Coding
Вид битрейта : Переменный
Битрейт : 83,1 Кбит/сек
Ширина : 1280 пикселей
Высота : 720 пикселей
Соотношение сторон : 16:9
Режим частоты кадров : Постоянный
Частота кадров : 15,000 кадров/сек
Цветовое пространство : YUV
Субдискретизация насыщенности : 4:2:0
Битовая глубина : 8 бит
Тип развёртки : Прогрессивная
Бит/(Пиксели*Кадры) : 0.006
Размер потока : 2,79 Мбайт (55%)
Размер потока оригинала : 3,21 Мбайт (63%)
Язык : English
Дата кодирования : UTC 2012-11-19 09:26:53
Дата пометки : UTC 2012-11-19 09:26:53
mdhd_Duration : 281202
Основные цвета : BT.709
Характеристики трансфера : BT.709
Коэффициенты матрицы : BT.709

Аудио
Идентификатор : 2
Формат : AAC
Формат/Информация : Advanced Audio Codec
Профиль формата : LC
Идентификатор кодека : 40
Вид битрейта : Постоянный
Битрейт : 53,5 Кбит/сек
Каналы : 2 канала
Расположение каналов : Front: L R
Частота : 44,1 КГц
Метод сжатия : С потерями
Размер потока : 1,80 Мбайт (35%)
Размер потока оригинала : 1,80 Мбайт (35%)
Язык : English
Дата кодирования : UTC 2012-11-19 09:26:53
Дата пометки : UTC 2012-11-19 09:26:53
mdhd_Duration : 281256
Скриншоты:



Время раздачи: 02:00х18:00 мск до 5-ти скачавших

Постеры

Соцсети

 

Вернуться в Сеть и безопасность



Кто сейчас на конференции

Сейчас эту тему просматривают: CCBot и гости: 0