Видео


Сообщение

Видео «Специалист» | Создание Wi - Fi сети малого офиса/домашней сети на примере типового оборудования D-Link [2010] PCRec

Сообщение asder » 17 июл 2013, 21:39

«Специалист» | Создание Wi - Fi сети малого офиса/домашней сети на примере типового оборудования D-Link [2010] PCRec

Автор: «Специалист»
Название: Создание Wi - Fi сети малого офиса/домашней сети на примере типового оборудования D-Link
Год выпуска: 2010
Жанр: Обучающее видео
Качество видео: PCRec
Продолжительность: 15:00:04
Видеокодек: G2M3
Битрейт видео: ~119 Kbps; 29.970 fps
Размер кадра: 1024х768
Аудиокодек: WMA
Битрейт аудио: 48.0 Kbps; 44.1 KHz; 1 канал

Описание:
Последнее время с развитием сетевых технологий все большее развитие получают беспроводные (Wi-Fi) сети. Такие сети обладают рядом преимуществ - простота развертывания, мобильность пользователей, легкая переносимость. Предлагаемый вебинар от учебного центра «Специалист» рассматривает наиболее важные моменты, связанные с развертыванием, настройкой, обеспечением безопасности таких сетей.
Материалы видеокурса предназначены для желающих самостоятельно наладить взаимодействие в домашней или офисной сети, а также обеспечить доступ в Internet при помощи одной из передовых бурно развивающихся технологий – DSL (вариант ADSL). Важной отличительной особенностью курса является направленность на обычного рядового пользователя ПК, который не обладает специфическими знаниями специалиста по корпоративным сетям.
# По окончании курса Вы будете уметь:
• Подбирать оборудование для эффективной работы (На примере D-Link)
• Производить установку и развертывание оборудования.
• Осуществлять настройку для различных типов взаимодействия в сети
• Оптимизировать эффективность сетевого взаимодействия
• Обеспечивать необходимый уровень безопасности беспроводной сети
• Создавать защищенные соединения в Internet, как например, связь между удаленными офисами
• Не переплачивать дополнительные деньги за невостребованные функции
Модуль 1. Основные принципы взаимодействия в локальных сетях. Типы и особенности беспроводных сетей.
• Сетевое взаимодействие с использованием IP-протокола
• Особенности взаимодействия в беспроводной среде
• Типы соединения и необходимое оборудование
Модуль 2. Решения D-Link для создания беспроводной сети класса SOHO. Развертывание и основная настройка сети
• Типы оборудования
• Понятие Firmware. Влияние Firmware на параметры устройства и способ взаимодействия с ним
• Варианты взаимодействия с оборудованием. Средства Windows и средства разработчика оборудования. Выполнение настройки
• Лабораторная работа: Развертывание и настройка различных типов оборудования D-Link
- DSL-G604V
- DWL-G132
- DWL-G520
Модуль 3. Вопросы обеспечения эффективности и безопасности. Общие принципы подключения локальных сетей к Internet.
• Настройки, влияющие на эффективность работы
• Способы обеспечения безопасности
• Защита сетевого трафика. Типы шифрования
• Лабораторная работа: Создание защищенной сети и подключение к ней. Первое подключение. Последующие подключения. Сохранение параметров настройки сети. Перенос параметров настройки на другой компьютер
• Защита на основе протокола WEP
• Защита на основе протокола WPA (PSK)
• Скрытие SSID
• Создание диска с настройками
• Настройка с использованием диска настроек
Модуль 4. Технология DSL. Общие принципы и различные реализации. Оборудование D-Link для ADSL-подключений и его настройка
• Общие принципы технологии цифровой связи (DSL)
• Существующие стандарты DSL и их отличия
• ADSL – как наиболее часто используемый вариант
• Решения D-Link для организации ADSL-подключений
• Параметры, зависящие от провайдера и произвольно выбираемые
• Режимы работы устройств (Bridge, Static IP, VPN Client, PPPoE)
• Лабораторная работа: Настройка модемов разных типов на различных поставщиков услуг (МТУ-ИНТЕЛ, Центральный Телеграф, Инфолайн)
- SL-500T/RU
- DSL-300T/RU
- DSL-200/RU
Модуль 5. Подключение к локальной сети через Internet. Общие принципы. Конкретные реализации удаленных подключений.
• Опасность повышения привилегий в системе
• Принцип минимальных привилегий
• Рекомендации по уходу от атак, связанных повышением привилегий
• Атаки типа «отказ в обслуживании»
• Рекомендации по уходу от атак типа «Отказ в обслуживании»
Общее
Полное имя : 1.wmv
Формат : Windows Media
Размер файла : 442 Мбайт
Продолжительность : 6 ч. 4 м.
Режим общего битрейта : Переменный
Общий поток : 169 Кбит/сек
Максимальный общий битрейт : 300 Кбит/сек
Дата кодирования : UTC 2010-04-19 05:47:55.406

Видео
Идентификатор : 3
Формат : GoToMeeting3
Идентификатор кодека : G2M3
Идентификатор кодека/Информация : Citrix Systems, Inc.
Продолжительность : 6 ч. 4 м.
Вид битрейта : Переменный
Битрейт : 119 Кбит/сек
Ширина : 1024 пикс.
Высота : 768 пикс.
Соотношение сторон : 4:3
Частота кадров : 29,970 кадр/сек
Битовая глубина : 8 бит
Бит/(Пиксели*Кадры) : 0.005
Размер потока : 310 Мбайт (70%)
Язык : Russian (RU)

Аудио
Идентификатор : 1
Формат : WMA
Версия формата : Version 2
Идентификатор кодека : 161
Идентификатор кодека/Информация : Windows Media Audio
Описание кодека : Windows Media Audio 9 - 48 kbps, 44 kHz, mono 1-pass CBR
Продолжительность : 6 ч. 4 м.
Вид битрейта : Постоянный
Битрейт : 48,0 Кбит/сек
Каналы : 1 канал
Частота : 44,1 КГц
Битовая глубина : 16 бит
Размер потока : 125 Мбайт (28%)
Язык : Russian
Общее
Полное имя : 2.wmv
Формат : Windows Media
Размер файла : 508 Мбайт
Продолжительность : 5 ч. 49 м.
Режим общего битрейта : Переменный
Общий поток : 203 Кбит/сек
Максимальный общий битрейт : 334 Кбит/сек
Дата кодирования : UTC 2010-04-20 06:30:53.906

Видео
Идентификатор : 3
Формат : GoToMeeting3
Идентификатор кодека : G2M3
Идентификатор кодека/Информация : Citrix Systems, Inc.
Продолжительность : 5 ч. 49 м.
Вид битрейта : Переменный
Битрейт : 153 Кбит/сек
Ширина : 1024 пикс.
Высота : 768 пикс.
Соотношение сторон : 4:3
Частота кадров : 29,970 кадр/сек
Битовая глубина : 8 бит
Бит/(Пиксели*Кадры) : 0.006
Размер потока : 382 Мбайт (75%)
Язык : Russian (RU)

Аудио
Идентификатор : 1
Формат : WMA
Версия формата : Version 2
Идентификатор кодека : 161
Идентификатор кодека/Информация : Windows Media Audio
Описание кодека : Windows Media Audio 9 - 48 kbps, 44 kHz, mono 1-pass CBR
Продолжительность : 5 ч. 49 м.
Вид битрейта : Постоянный
Битрейт : 48,0 Кбит/сек
Каналы : 1 канал
Частота : 44,1 КГц
Битовая глубина : 16 бит
Размер потока : 120 Мбайт (24%)
Язык : Russian
Общее
Полное имя : 3.wmv
Формат : Windows Media
Размер файла : 269 Мбайт
Продолжительность : 3 ч. 6 м.
Режим общего битрейта : Переменный
Общий поток : 202 Кбит/сек
Максимальный общий битрейт : 336 Кбит/сек
Дата кодирования : UTC 2010-04-21 06:06:16.781

Видео
Идентификатор : 3
Формат : GoToMeeting3
Идентификатор кодека : G2M3
Идентификатор кодека/Информация : Citrix Systems, Inc.
Вид битрейта : Переменный
Битрейт : 154 Кбит/сек
Ширина : 1024 пикс.
Высота : 768 пикс.
Соотношение сторон : 4:3
Режим частоты кадров : Переменный
Номинальная частота кадров : 29,970 кадр/сек
Битовая глубина : 8 бит
Язык : Russian (RU)

Аудио
Идентификатор : 1
Формат : WMA
Версия формата : Version 2
Идентификатор кодека : 161
Идентификатор кодека/Информация : Windows Media Audio
Описание кодека : Windows Media Audio 9 - 48 kbps, 44 kHz, mono 1-pass CBR
Продолжительность : 3 ч. 6 м.
Вид битрейта : Постоянный
Битрейт : 48,0 Кбит/сек
Каналы : 1 канал
Частота : 44,1 КГц
Битовая глубина : 16 бит
Размер потока : 64,0 Мбайт (24%)
Язык : Russian
* Раздаётся папкой
* Уроки соответствуют заявленным темам и представленные скрины из каждого урока;
* Скрины сняты с Windows Media Player Classic.
* Информация по видеофайлам снята - MediaInfo
* Примечание:
1. Возможно, для просмотра, Вам потребуется . Мне он понадобился
2. Предупреждая некоторые комменты, отмечаю что имеются некоторые отклонения в начале уроков: (в 1 вебинаре настройка микрофона около 6 мин и 3 - около 4 минут).
Скриншоты:



Время раздачи: 24/7 - до 10 скачавших

Постеры

Соцсети

 

Вернуться в Сеть и безопасность



Кто сейчас на конференции

Сейчас эту тему просматривают: CCBot и гости: 0