Видео


Сообщение

Видео Mirror force by Patrick Kun [2011, Фокусы с картами, форсирование, card force, DVDRip, ENG] (Видеоурок)

Сообщение Nik » 05 авг 2013, 23:27

Mirror force by Patrick Kun

Страна: USA
Тематика: Фокусы с картами, форсирование, card force
Тип раздаваемого материала: Видеоурок
Продолжительность: 00:14:11
Год выпуска: 2011

Язык: Английский
Перевод: Отсутствует

Превью: http://www.youtube.com/watch?v=ZY6lbvi6-pA

Описание: -Форсирование нижней карты в spread`е
-Вы не показываете рубашку карты
-Карту сразу можно законтролить вниз
-Имеет несколько доп. аппликаций

Доп. информация: Комбинация side steal`a и Allerton switch`a

Качество: DVDRip
Формат: MOV
Видео кодек: VC-1
Аудио кодек: PCM
Системные требования: Мультимедийный проигрыватель
Видео: AVC, 720x480, 1.5, 689 kbps, 23,976
Аудио: PCM, 48 kHz, 2 ch
MediaInfo
Format : QuickTime
Format/Info : Original Apple specifications
File size : 226 MiB
Duration : 14mn 11s
Overall bit rate : 2 226 Kbps
Encoded date : UTC 2011-03-12 18:40:20
Tagged date : UTC 2011-03-12 19:05:59
Writing library : Apple QuickTime

Video
ID : 1
Format : AVC
Format/Info : Advanced Video Codec
Format profile : Baseline@L3.0
Format settings, CABAC : No
Format settings, ReFrames : 2 frames
Codec ID : avc1
Codec ID/Info : Advanced Video Coding
Duration : 14mn 11s
Bit rate mode : Variable
Bit rate : 689 Kbps
Width : 720 pixels
Height : 480 pixels
Display aspect ratio : 1.500
Frame rate mode : Constant
Frame rate : 23.976 fps
Standard : NTSC
Resolution : 8 bits
Colorimetry : 4:2:0
Scan type : Progressive
Bits/(Pixel*Frame) : 0.083
Stream size : 69.9 MiB (31%)
Language : English
Encoded date : UTC 2011-03-12 18:40:20
Tagged date : UTC 2011-03-12 19:05:59
Color primaries : BT.601-6 525, BT.1358 525, BT.1700 NTSC, SMPTE 170M
Transfer characteristics : BT.709-5, BT.1361
Matrix coefficients : BT.601-6 525, BT.1358 525, BT.1700 NTSC, SMPTE 170M

Audio
ID : 2
Format : PCM
Format settings, Endianness : Big
Format settings, Sign : Signed
Codec ID : twos
Duration : 14mn 11s
Bit rate mode : Constant
Bit rate : 1 536 Kbps
Channel(s) : 2 channels
Sampling rate : 48.0 KHz
Resolution : 16 bits
Stream size : 156 MiB (69%)
Language : English
Encoded date : UTC 2011-03-12 18:40:20
Tagged date : UTC 2011-03-12 19:05:59
Скриншоты

Постеры

Соцсети

 

Статистика

Автор: Nik
Добавлен: 05 авг 2013, 23:27
Размер: 225.98 МБ
Размер: 236 961 744 байт
Сидеров: 36
Личеров: 7
Скачали: 2
Здоровье: 100%
Раздающих: 100%
Скорость скачивания: 0 байт/сек
Скорость раздачи: 0 байт/сек
Последний сидер: 12 дней 9 часов 8 минут 14 секунд назад
Последний личер: 12 дней 9 часов 8 минут 14 секунд назад
Приватный: Нет (DHT включён)
Скачать торрент
Скачать торрент
[ Размер 18.14 КБ / Просмотров 18 ]

Поделиться


Вернуться в Фокусы и трюки