Видео


Сообщение

Видео Shin Lim (сборник из 6 фокусов) [2011, Обучение фокусам, ENG] (Видеоурок)

Сообщение Nik » 05 авг 2013, 23:27

Shin Lim (сборник из 6 фокусов)

Страна: USA
Тематика: Обучение фокусам
Тип раздаваемого материала: Видеоурок
Год выпуска: 2011

Язык: Английский
Перевод: Отсутствует

Описание: 1. Shin Lim - Spell. Фокусник отдает зрителю колоду карт и просит выбрать карту, которая ему понравится затем положить ее на стол рубашкой, вверх так чтобы фокусник не увидел лица карты. Дальше зритель помещает карту в любое место колоды и когда он задвинул, ее называет карту. Затем зритель начинает отсчитывать по одной карте на каждую букву, и последняя буква этой карты оказывается выбранной зрителем.
Превью:http://www.youtube.com/watch?v=s_xJ8jS8LMQ

2. Shin Lim - Change of Heart. Две визуальные карточные сменки.
Превью:http://www.youtube.com/watch?v=QUoZvbWfJaw

3. Shin Lim - Control Freak. Два контроля карт.
Превью:http://www.youtube.com/watch?v=HUluSSWOLaU

4. Shin Lim - ShiNAG. Выбранная зрителем карта (по желанию подписанная) теряется в колоде, а затем, сделав спринг фокусник, выхватывает карту из центра колоды.
Превью:http://www.youtube.com/watch?v=mumG30aTFCY&feat...rder&list=UL

5. Shin Lim - Splice. Отличный контроль карты.
Превью: http://www.youtube.com/watch?v=FCivtPd0_Tc

6. Shin Lim - Think. Зритель называет любое число от 1 до 52, затем достает колоду из коробочки и отсчитывает названое количество карт, смотрит карту и это оказывается предсказанная фокусником карта.
Превью:http://www.youtube.com/watch?v=_J7JqCL5ZW8&feat...rder&list=UL

Доп. информация:
Технические данные

Shin Lim - Spell
Video
ID : 1
Format : AVC
Format/Info : Advanced Video Codec
Format profile : Main@L3.2
Format settings, CABAC : Yes
Format settings, ReFrames : 3 frames
Format settings, GOP : M=4, N=33
Codec ID : avc1
Codec ID/Info : Advanced Video Coding
Duration : 10mn 46s
Bit rate : 2 085 Kbps
Width : 1 280 pixels
Height : 720 pixels
Display aspect ratio : 16:9
Frame rate mode : Constant
Frame rate : 24.000 fps
Standard : NTSC
Color space : YUV
Chroma subsampling : 4:2:0
Bit depth : 8 bits
Scan type : Progressive
Bits/(Pixel*Frame) : 0.094
Stream size : 161 MiB (92%)
Language : English
Encoded date : UTC 2011-11-02 05:12:26
Tagged date : UTC 2011-11-02 05:12:26

Audio
ID : 2
Format : AAC
Format/Info : Advanced Audio Codec
Format profile : LC
Codec ID : 40
Duration : 10mn 46s
Bit rate mode : Variable
Bit rate : 192 Kbps
Maximum bit rate : 278 Kbps
Channel(s) : 2 channels
Channel positions : Front: L R
Sampling rate : 48.0 KHz
Compression mode : Lossy
Stream size : 14.6 MiB (8%)
Language : English
Encoded date : UTC 2011-11-02 05:12:26
Tagged date : UTC 2011-11-02 05:12:26
Material_Duration : 646293
Material_StreamSize : 15298975

Shin Lim - Change of Heart

Video
ID : 1
Format : AVC
Format/Info : Advanced Video Codec
Format profile : High@L3.0
Format settings, CABAC : Yes
Format settings, ReFrames : 4 frames
Codec ID : avc1
Codec ID/Info : Advanced Video Coding
Duration : 27mn 44s
Duration_LastFrame : -7ms
Bit rate mode : Variable
Bit rate : 1 143 Kbps
Width : 720 pixels
Height : 400 pixels
Display aspect ratio : 16:9
Original display aspect ratio : 16:9
Frame rate mode : Constant
Frame rate : 25.000 fps
Color space : YUV
Chroma subsampling : 4:2:0
Bit depth : 8 bits
Scan type : Progressive
Bits/(Pixel*Frame) : 0.159
Stream size : 229 MiB (87%)
Writing library : x264 core 112
Encoding settings : cabac=1 / ref=3 / deblock=1:0:0 / analyse=0x3:0x113 / me=hex / subme=7 / psy=1 / psy_rd=1.00:0.00 / mixed_ref=1 / me_range=16 / chroma_me=1 / trellis=1 / 8x8dct=1 / cqm=0 / deadzone=21,11 / fast_pskip=1 / chroma_qp_offset=-2 / threads=12 / sliced_threads=0 / nr=0 / decimate=1 / interlaced=0 / constrained_intra=0 / bframes=3 / b_pyramid=2 / b_adapt=1 / b_bias=0 / direct=1 / weightb=1 / open_gop=0 / weightp=2 / keyint=300 / keyint_min=29 / scenecut=40 / intra_refresh=0 / rc_lookahead=40 / rc=abr / mbtree=1 / bitrate=1143 / ratetol=1.0 / qcomp=0.60 / qpmin=3 / qpmax=51 / qpstep=4 / ip_ratio=1.40 / aq=1:1.00
Encoded date : UTC 2011-10-10 15:57:05
Tagged date : UTC 2011-10-10 16:05:12
Color primaries : BT.601-6 525, BT.1358 525, BT.1700 NTSC, SMPTE 170M
Transfer characteristics : BT.709-5, BT.1361
Matrix coefficients : BT.601-6 525, BT.1358 525, BT.1700 NTSC, SMPTE 170M

Audio
ID : 2
Format : AAC
Format/Info : Advanced Audio Codec
Format profile : LC
Codec ID : 40
Duration : 27mn 44s
Bit rate mode : Variable
Bit rate : 160 Kbps
Maximum bit rate : 260 Kbps
Channel(s) : 2 channels
Channel positions : Front: L R
Sampling rate : 44.1 KHz
Compression mode : Lossy
Stream size : 31.7 MiB (12%)
Encoded date : UTC 2011-10-10 15:57:05
Tagged date : UTC 2011-10-10 16:05:11

Text
ID : 3
Format : Apple text
Codec ID : text
Duration : 27mn 44s
Bit rate mode : Variable
Bit rate : 1 bps
Stream size : 312 Bytes (0%)
Encoded date : UTC 2011-10-10 15:57:05
Tagged date : UTC 2011-10-10 16:05:12

Shin Lim - Control Freak

Video
ID : 0
Format : MPEG-4 Visual
Format profile : Advanced Simple@L5
Format settings, BVOP : No
Format settings, QPel : No
Format settings, GMC : No warppoints
Format settings, Matrix : Default (MPEG)
Codec ID : XVID
Codec ID/Hint : XviD
Duration : 9mn 53s
Bit rate : 1 470 Kbps
Width : 640 pixels
Height : 360 pixels
Display aspect ratio : 16:9
Frame rate : 24.000 fps
Color space : YUV
Chroma subsampling : 4:2:0
Bit depth : 8 bits
Scan type : Progressive
Compression mode : Lossy
Bits/(Pixel*Frame) : 0.266
Stream size : 104 MiB (88%)
Writing library : XviD 1.2.1 (UTC 2008-12-04)

Audio
ID : 1
Format : MPEG Audio
Format version : Version 1
Format profile : Layer 3
Codec ID : 55
Codec ID/Hint : MP3
Duration : 9mn 53s
Bit rate mode : Constant
Bit rate : 192 Kbps
Channel(s) : 2 channels
Sampling rate : 44.1 KHz
Compression mode : Lossy
Stream size : 13.6 MiB (11%)
Alignment : Split accross interleaves
Interleave, duration : 42 ms (1.00 video frame

Shin Lim - ShiNAG

Video
ID : 1
Format : AVC
Format/Info : Advanced Video Codec
Format profile : Baseline@L3.0
Format settings, CABAC : No
Format settings, ReFrames : 3 frames
Codec ID : avc1
Codec ID/Info : Advanced Video Coding
Duration : 1h 2mn
Bit rate : 1 173 Kbps
Maximum bit rate : 4 129 Kbps
Width : 640 pixels
Height : 360 pixels
Display aspect ratio : 16:9
Frame rate mode : Constant
Frame rate : 24.000 fps
Color space : YUV
Chroma subsampling : 4:2:0
Bit depth : 8 bits
Scan type : Progressive
Bits/(Pixel*Frame) : 0.212
Stream size : 525 MiB (93%)
Writing library : x264 core 115 r2013 6fce39a
Encoding settings : cabac=0 / ref=3 / deblock=1:0:0 / analyse=0x1:0x111 / me=umh / subme=8 / psy=1 / psy_rd=1.00:0.00 / mixed_ref=1 / me_range=16 / chroma_me=1 / trellis=1 / 8x8dct=0 / cqm=0 / deadzone=21,11 / fast_pskip=1 / chroma_qp_offset=-2 / threads=24 / sliced_threads=0 / nr=0 / decimate=1 / interlaced=0 / bluray_compat=0 / constrained_intra=0 / bframes=0 / weightp=0 / keyint=250 / keyint_min=24 / scenecut=40 / intra_refresh=0 / rc_lookahead=50 / rc=crf / mbtree=1 / crf=16.0 / qcomp=0.60 / qpmin=0 / qpmax=69 / qpstep=4 / ip_ratio=1.40 / aq=1:1.00
Encoded date : UTC 2011-09-12 21:14:49
Tagged date : UTC 2011-09-12 21:14:54

Audio
ID : 2
Format : AAC
Format/Info : Advanced Audio Codec
Format profile : LC
Codec ID : 40
Duration : 1h 2mn
Bit rate mode : Variable
Bit rate : 88.6 Kbps
Maximum bit rate : 115 Kbps
Channel(s) : 2 channels
Channel positions : Front: L R
Sampling rate : 48.0 KHz
Compression mode : Lossy
Stream size : 39.6 MiB (7%)
Encoded date : UTC 2011-09-12 21:14:52
Tagged date : UTC 2011-09-12 21:14:54

Shin Lim - Splice

Video
ID : 1
Format : AVC
Format/Info : Advanced Video Codec
Format profile : Main@L3.2
Format settings, CABAC : Yes
Format settings, ReFrames : 3 frames
Codec ID : avc1
Codec ID/Info : Advanced Video Coding
Duration : 19mn 57s
Bit rate : 1 897 Kbps
Width : 1 280 pixels
Height : 720 pixels
Display aspect ratio : 16:9
Frame rate mode : Constant
Frame rate : 24.000 fps
Standard : NTSC
Color space : YUV
Chroma subsampling : 4:2:0
Bit depth : 8 bits
Scan type : Progressive
Bits/(Pixel*Frame) : 0.086
Stream size : 271 MiB (91%)
Language : English
Encoded date : UTC 2011-11-27 12:53:41
Tagged date : UTC 2011-11-27 12:53:41
Material_Duration : 1198250
Material_Duration_LastFrame : -42
Material_StreamSize : 284020134
Material_FrameCount : 28759

Audio
ID : 2
Format : AAC
Format/Info : Advanced Audio Codec
Format profile : LC
Codec ID : 40
Duration : 19mn 57s
Bit rate mode : Variable
Bit rate : 192 Kbps
Maximum bit rate : 290 Kbps
Channel(s) : 2 channels
Channel positions : Front: L R
Sampling rate : 48.0 KHz
Compression mode : Lossy
Stream size : 27.0 MiB (9%)
Language : English
Encoded date : UTC 2011-11-27 12:53:41
Tagged date : UTC 2011-11-27 12:53:41
Material_Duration : 1198336
Material_StreamSize : 28366860

Shin Lim - Think

Video
ID : 0
Format : MPEG-4 Visual
Format profile : Advanced Simple@L4
Format settings, BVOP : No
Format settings, QPel : No
Format settings, GMC : No warppoints
Format settings, Matrix : Default (H.263)
Codec ID : XVID
Codec ID/Hint : XviD
Duration : 33mn 31s
Bit rate : 821 Kbps
Width : 640 pixels
Height : 360 pixels
Display aspect ratio : 16:9
Frame rate : 29.970 fps
Color space : YUV
Chroma subsampling : 4:2:0
Bit depth : 8 bits
Scan type : Progressive
Compression mode : Lossy
Bits/(Pixel*Frame) : 0.119
Stream size : 197 MiB (85%)
Writing library : Magic0432

Audio
ID : 1
Format : MPEG Audio
Format version : Version 1
Format profile : Layer 3
Mode : Joint stereo
Mode extension : MS Stereo
Codec ID : 55
Codec ID/Hint : MP3
Duration : 33mn 31s
Bit rate mode : Constant
Bit rate : 128 Kbps
Channel(s) : 2 channels
Sampling rate : 44.1 KHz
Compression mode : Lossy
Stream size : 30.7 MiB (13%)
Alignment : Aligned on interleaves
Interleave, duration : 26 ms (0.78 video frame)
Writing library : LAME3.97ЄЄЄЄЄЄЄЄЄЄЄЄ
Скриншоты
Spell - Shin Lim


Shin Lim - Change of Heart


Shin Lim - Control Freak


Shin Lim - ShiNAG


Shin Lim - Splice


Shin Lim - Think

Постеры

Соцсети

 

Статистика

Автор: Nik
Добавлен: 05 авг 2013, 23:27
Размер: 1.61 ГБ
Размер: 1 730 305 902 байт
Сидеров: 217
Личеров: 6
Скачали: 4
Здоровье: 100%
Раздающих: 100%
Скорость скачивания: 0 байт/сек
Скорость раздачи: 0 байт/сек
Последний сидер: 13 дней 15 часов 30 минут 2 секунды назад
Последний личер: 13 дней 15 часов 30 минут 2 секунды назад
Приватный: Нет (DHT включён)
Скачать торрент
Скачать торрент
[ Размер 17.07 КБ / Просмотров 31 ]

Поделиться


Вернуться в Фокусы и трюки