Видео


Сообщение

Видео Empty-handed by Pavel Klochkov/С пустыми руками.Павел Клочков [2011, манипуляция, HDRip, ENG] (Видеоурок)

Сообщение Nik » 05 авг 2013, 23:30

Empty-handed by Pavel Klochkov/С пустыми руками.Павел Клочков

Страна: Россия
Тематика: манипуляция
Тип раздаваемого материала: Видеоурок
Продолжительность: ~20 мин
Год выпуска: 2011

Язык: Английский
Перевод: Отсутствует

Описание: Some new ideas about how to perform the well-known things manipulations..We've seen many kinds of stick, cigarette, cards and beads manipulations and this is a bit of improving and modification in this field.

Манипуляции различными предметами (палкой, сигаретой, картой, бусами)
другие семинары Павла Клочкова
Карта сквозь экран ТВ http://rutracker.org/forum/viewtopic.php?t=3727721
Threefold effect http://rutracker.org/forum/viewtopic.php?t=3818558
Качество: HDRip
Формат: AVI
Видео кодек: XviD
Аудио кодек: MP3
тех.данные
Format : AVI
Format/Info : Audio Video Interleave
File size : 185 MiB
Duration : 6mn 16s
Overall bit rate : 4 125 Kbps
Writing application : MEncoder SVN-r30881(20100311-gcc4.3.3)

Video
ID : 0
Format : MPEG-4 Visual
Format profile : Advanced Simple@L5
Format settings, BVOP : 2
Format settings, QPel : No
Format settings, GMC : No warppoints
Format settings, Matrix : Default (H.263)
Codec ID : XVID
Codec ID/Hint : XviD
Duration : 6mn 16s
Bit rate : 3 984 Kbps
Width : 1 280 pixels
Height : 720 pixels
Display aspect ratio : 16:9
Frame rate : 25.000 fps
Color space : YUV
Chroma subsampling : 4:2:0
Bit depth : 8 bits
Scan type : Progressive
Compression mode : Lossy
Bits/(Pixel*Frame) : 0.173
Stream size : 179 MiB (97%)
Writing library : XviD 1.2.1 (UTC 2008-12-04)

Audio
ID : 1
Format : MPEG Audio
Format version : Version 1
Format profile : Layer 3
Mode : Joint stereo
Mode extension : MS Stereo
Codec ID : 55
Codec ID/Hint : MP3
Duration : 6mn 15s
Bit rate mode : Constant
Bit rate : 128 Kbps
Channel(s) : 2 channels
Sampling rate : 44.1 KHz
Compression mode : Lossy
Delay relative to video : 40ms
Stream size : 5.74 MiB (3%)
Alignment : Aligned on interleaves
Interleave, duration : 26 ms (0.65 video frame)
Interleave, preload duration : 522 ms
Скриншоты

Постеры

Соцсети

 

Статистика

Автор: Nik
Добавлен: 05 авг 2013, 23:30
Размер: 703.41 МБ
Размер: 737 580 892 байт
Сидеров: 35
Личеров: 8
Скачали: 5
Здоровье: 100%
Раздающих: 100%
Скорость скачивания: 0 байт/сек
Скорость раздачи: 0 байт/сек
Последний сидер: 6 месяцев 6 часов 21 минуту 54 секунды назад
Последний личер: 12 дней 5 часов 43 минуты 18 секунд назад
Приватный: Нет (DHT включён)
Скачать торрент
Скачать торрент
[ Размер 28.44 КБ / Просмотров 100 ]

Поделиться


Вернуться в Фокусы и трюки