Видео


Сообщение

Видео The World's Greatest Magic - Finger Ring Magic [Фокусы с кольцами, tricks with ring, DVDRip, ENG] (Видеоурок)

Сообщение Nik » 05 авг 2013, 23:31

The World's Greatest Magic - Finger Ring Magic

Страна: USA
Тематика: Фокусы с кольцами, tricks with ring
Тип раздаваемого материала: Видеоурок
Продолжительность: 02:05:03
Язык: Английский
Перевод: Отсутствует

Превью и описание на английском: http://www.penguinmagic.com/p/S6194 http://www.youtube.com/watch?v=7BSZeX276e4

Описание: Фокусы с обычным кольцом, в основном с чем нибудь еще, веревки итп. Отличное дополнение к divorce и reflex

Другие семинары на тему фокусы с кольцами
Reflex by Patrick Kun
Divorce by Justin Miller
Interlace by Richard Sanders
The Ring thing by Garett Thomas
De`Ring by De`Vo

Качество: DVDRip
Формат: MP4
Видео кодек: DivX
Аудио кодек: MP3
Системные требования: MediaPlayer
Видео: DivX, 416*288, 1.4, 315 kbps, 29.97 fps
Аудио: MP3, 64 kbps, 32 kHz, 2 ch
MediaInfo
Format : DivX
Format/Info : Hack of AVI
File size : 350 MiB
Duration : 2h 5mn
Overall bit rate : 391 Kbps

Video
ID : 0
Format : MPEG-4 Visual
Format settings, BVOP : Yes
Format settings, QPel : No
Format settings, GMC : No warppoints
Format settings, Matrix : Default (H.263)
Codec ID : DX50
Codec ID/Hint : DivX 5
Duration : 2h 5mn
Bit rate : 315 Kbps
Width : 416 pixels
Height : 288 pixels
Display aspect ratio : 1.444
Frame rate : 29.970 fps
Resolution : 8 bits
Colorimetry : 4:2:0
Scan type : Progressive
Bits/(Pixel*Frame) : 0.088
Stream size : 282 MiB (81%)
Title : Video
Writing library : DivX 6.2.5 (UTC 2006-07)

Audio
ID : 1
Format : MPEG Audio
Format version : Version 1
Format profile : Layer 3
Mode : Dual mono
Codec ID : 55
Codec ID/Hint : MP3
Duration : 2h 5mn
Bit rate mode : Constant
Bit rate : 64.0 Kbps
Channel(s) : 2 channels
Sampling rate : 32.0 KHz
Stream size : 57.2 MiB (16%)
Alignment : Split accross interleaves
Interleave, duration : 33 ms (1.00 video frame)
Interleave, preload duration : 500 ms
Title : Audio
Скриншоты

Постеры

Соцсети

 

Статистика

Автор: Nik
Добавлен: 05 авг 2013, 23:31
Размер: 350 МБ
Размер: 366 998 978 байт
Сидеров: 26
Личеров: 9
Скачали: 1
Здоровье: 100%
Раздающих: 100%
Скорость скачивания: 0 байт/сек
Скорость раздачи: 0 байт/сек
Последний сидер: 13 дней 13 часов 18 минут 48 секунд назад
Последний личер: 13 дней 13 часов 18 минут 48 секунд назад
Приватный: Нет (DHT включён)
Скачать торрент
Скачать торрент
[ Размер 14.28 КБ / Просмотров 22 ]

Поделиться


Вернуться в Фокусы и трюки