Видео


Сообщение

Видео Yoann F. Collection 3 Moves/Gentle Change/Surround [Фокусы с картами, контроль карты, сменка, DVDRip, ENG] (Видеоурок)

Сообщение Nik » 05 авг 2013, 23:32

Yoann F. Collection 3 Moves/Gentle Change/Surround

Страна: USA
Тематика: Фокусы с картами, контроль карты, сменка
Тип раздаваемого материала: Видеоурок
Язык: Английский
Перевод: Отсутствует

Описание: 3 Семинара от сайта MagicalSleight

Surround
http://www.youtube.com/watch?v=dQewcptxIAc
3 контроля карты, 2 фокуса

3Moves
http://www.youtube.com/watch?v=rk8nEdNAjWU
2 контроля
Double Lift
Mechanical Reverse

Gentle Change
Spread Cull
Сама сменка, с несколькими вариациями Clean-upa и самой сменки
Неплохой transpo effect

Качество: DVDRip
Формат: AVI
Видео кодек: XviD
Аудио кодек: MP3
Видео: XviD, 768*432, 16:9, 555 kbps, 23.976 fps
Аудио: MP3, 128 kbps, 22.05 kHz, 2 ch
MediaInfo
Format : AVI
Format/Info : Audio Video Interleave
File size : 6.56 MiB
Duration : 2mn 38s
Overall bit rate : 348 Kbps
Writing application : MEncoder SVN-r30881(20100311-gcc4.3.3)
Writing library : MPlayer

Video
ID : 0
Format : MPEG-4 Visual
Format profile : Advanced Simple@L5
Format settings, BVOP : Yes
Format settings, QPel : No
Format settings, GMC : No warppoints
Format settings, Matrix : Default (H.263)
Codec ID : XVID
Codec ID/Hint : XviD
Duration : 1mn 19s
Bit rate : 555 Kbps
Width : 768 pixels
Height : 432 pixels
Display aspect ratio : 16:9
Frame rate : 23.976 fps
Resolution : 8 bits
Colorimetry : 4:2:0
Scan type : Progressive
Bits/(Pixel*Frame) : 0.070
Stream size : 5.24 MiB (80%)
Writing library : XviD 1.2.1 (UTC 2008-12-04)

Audio
ID : 1
Format : MPEG Audio
Format version : Version 2
Format profile : Layer 3
Mode : Joint stereo
Format_Settings_ModeExtension : MS Stereo
Codec ID : 55
Codec ID/Hint : MP3
Duration : 2mn 38s
Bit rate mode : Constant
Bit rate : 128 Kbps
Channel(s) : 2 channels
Sampling rate : 22.05 KHz
Video delay : 82ms
Stream size : 1.21 MiB (18%)
Alignment : Aligned on interleaves
Interleave, duration : 26 ms (0.63 video frame)
Interleave, preload duration : 522 ms
Writing library : LAME3.98
Скриншоты

Постеры

Соцсети

 

Статистика

Автор: Nik
Добавлен: 05 авг 2013, 23:32
Размер: 230.16 МБ
Размер: 241 344 548 байт
Сидеров: 51
Личеров: 2
Скачали: 2
Здоровье: 100%
Раздающих: 100%
Скорость скачивания: 0 байт/сек
Скорость раздачи: 0 байт/сек
Последний сидер: 12 дней 9 часов 4 минуты 22 секунды назад
Последний личер: 12 дней 9 часов 4 минуты 22 секунды назад
Приватный: Нет (DHT включён)
Скачать торрент
Скачать торрент
[ Размер 20.23 КБ / Просмотров 18 ]

Поделиться


Вернуться в Фокусы и трюки