Видео


Сообщение

Видео Shin Lim Penguin Live [2012, SATRip, ENG] (Видеоурок)

Сообщение Nik » 05 авг 2013, 23:32

Shin Lim Penguin Live

Страна: США
Тип раздаваемого материала: Видеоурок
Продолжительность: 02:17:40
Год выпуска: 2012

Язык: Английский
Перевод: Отсутствует

Описание: Лекция Шин Лима с Penguin Magic

Доп. информация: Превью, описание на английском, отзывы.

Качество: SATRip
Формат: FLV
Видео кодек: AVC
Аудио кодек: AAC
Видео: AVC, 512x288(16:9), 245kbps, 15fps
Аудио: AAC, 31,6kbps, 44,1kHz, 2ch
Скриншоты


MediaInfo
Код:
Код: Выделить всё
Формат                                   : Flash Video
Размер файла                             : 283 Мбайт
Продолжительность                        : 2 ч. 17 м.
Общий поток                              : 287 Кбит/сек
Пометившая программа                     : iku

Видео
Формат                                   : AVC
Формат/Информация                        : Advanced Video Codec
Профиль формата                          : High@L2.1
Параметр CABAC формата                   : Да
Параметр ReFrames формата                : 5 кадров
Идентификатор кодека                     : 7
Продолжительность                        : 2 ч. 17 м.
Битрейт                                  : 245 Кбит/сек
Ширина                                   : 512 пикселей
Высота                                   : 288 пикселей
Соотношение сторон                       : 16:9
Режим частоты кадров                     : Постоянный
Частота кадров                           : 15,000 кадров/сек
Цветовое пространство                    : YUV
Субдискретизация насыщенности            : 4:2:0
Битовая глубина                          : 8 бит
Тип развёртки                            : Прогрессивная
Бит/(Пиксели*Кадры)                      : 0.111
Размер потока                            : 248 Мбайт (88%)

Аудио
Формат                                   : AAC
Формат/Информация                        : Advanced Audio Codec
Профиль формата                          : HE-AAC / LC
Идентификатор кодека                     : 10
Продолжительность                        : 2 ч. 17 м.
Битрейт                                  : 31,6 Кбит/сек
Каналы                                   : 2 канала
Расположение каналов                     : Front: L R
Частота                                  : 44,1 КГц / 22,05 КГц
Метод сжатия                             : С потерями
Размер потока                            : 33,7 Мбайт (12%)

Постеры

Соцсети

 

Статистика

Автор: Nik
Добавлен: 05 авг 2013, 23:32
Размер: 282.9 МБ
Размер: 296 642 903 байт
Сидеров: 30
Личеров: 3
Скачали: 1
Здоровье: 100%
Раздающих: 100%
Скорость скачивания: 0 байт/сек
Скорость раздачи: 0 байт/сек
Последний сидер: 2 месяца 7 дней 15 часов 52 минуты 46 секунд назад
Последний личер: 16 дней 4 часа 57 минут 6 секунд назад
Приватный: Нет (DHT включён)
Скачать торрент
Скачать торрент
[ Размер 11.62 КБ / Просмотров 19 ]

Поделиться


Вернуться в Фокусы и трюки