Видео


Сообщение

Видео The Thing: Platinum Edition [2008, Фокусы, DVDRip, ENG] (Видеоурок)

Сообщение Nik » 05 авг 2013, 23:33

The Thing: Platinum Edition / The Thing: Platinum Edition

Страна: США
Тематика: Фокусы
Тип раздаваемого материала: Видеоурок
Продолжительность: 01:57:17
Год выпуска: 2008

Язык: Английский
Перевод: Отсутствует

Язык субтитров: Отсутствует
Описание: The Thing — это самый практичный, портативный, автономный и невероятный эффект левитации, который вы можете себе представить.
Его можно показывать ГДЕ УГОДНО — в гостиной, на большой сцене театра или даже днем на улице.
The Thing можено использовать в любой ситуации, независимо от того, насколько близко зрители, будь-то сзади, сверху или под вами, они не увидят, как это ВЕЩЬ работает!

Вы показываете совершенно пустую коробку из прозрачного пластика. Крышка коробки открыта, и платок накинут на неё. ВНЕЗАПНО, таинственная форма начинает приподнимать платок до тех пор пока он не начинает просто парить в воздухе без видимой поддержки. Затем вы приподнимаете угол платка лишь для того чтобы продемонстрировать что под ним нет НИЧЕГО.
Вы снова накидываете платок на невидимый объект и ЭТО начинает парить уже над головами ваших зрителей. Затем вы опускаете парящий платок к коробке, проталкиваете ВЕЩЬ во внутрь, убираете платок, и драматично закрываете коробку. Аплодисменты!

Особенности:
— Без нитей
— Без магнитов
— Без ассистентов
— Можно повторять сколько угодно раз подряд

Качество: DVDRip
Формат: AVI
Видео кодек: XviD
Аудио кодек: MP3
Видео: XviD , 720x480 (3:2), 24 fps, 1180 kbps
Аудио: MP3, 44.1 kHz, 2 ch, 128 kbps
Скриншоты
MediaInfo
Код:
Код: Выделить всё
Общее
Полное имя                               : THE_THING_PLATINUM\THE_THING_PLATINUM.avi
Формат                                   : AVI
Формат/Информация                        : Audio Video Interleave
Профиль формата                          : OpenDML
Размер файла                             : 1,08 Гбайт
Продолжительность                        : 1 ч. 57 м.
Общий поток                              : 1324 Кбит/сек
Программа кодирования                    : MEncoder SVN-r30881(20100311-gcc4.3.3)
Библиотека кодирования                   : MPlayer

Видео
Идентификатор                            : 0
Формат                                   : MPEG-4 Visual
Профиль формата                          : Advanced Simple@L5
Параметр BVOP формата                    : 2
Параметр QPel формата                    : Нет
Параметр GMC формата                     : Без точки перехода
Параметр матрицы формата                 : Default (H.263)
Идентификатор кодека                     : XVID
Идентификатор кодека/Подсказка           : XviD
Продолжительность                        : 1 ч. 57 м.
Битрейт                                  : 1180 Кбит/сек
Ширина                                   : 720 пикселей
Высота                                   : 480 пикселей
Соотношение сторон                       : 3:2
Частота кадров                           : 24,000 кадра/сек
Стандарт вещания                         : NTSC
Цветовое пространство                    : YUV
Субдискретизация насыщенности            : 4:2:0
Битовая глубина                          : 8 бит
Тип развёртки                            : Прогрессивная
Метод сжатия                             : С потерями
Бит/(Пиксели*Кадры)                      : 0.142
Размер потока                            : 990 Мбайт (89%)
Библиотека кодирования                   : XviD 1.2.1 (UTC 2008-12-04)

Аудио
Идентификатор                            : 1
Формат                                   : MPEG Audio
Версия формата                           : Version 1
Профиль формата                          : Layer 3
Режим                                    : Joint stereo
Расширение режима                        : MS Stereo
Идентификатор кодека                     : 55
Идентификатор кодека/Подсказка           : MP3
Продолжительность                        : 1 ч. 57 м.
Вид битрейта                             : Постоянный
Битрейт                                  : 128 Кбит/сек
Каналы                                   : 2 канала
Частота                                  : 44,1 КГц
Метод сжатия                             : С потерями
Задержка видео                           : 42 мс.
Размер потока                            : 107 Мбайт (10%)
Выравнивание                             : Соединение по промежуткам
Продолжительность промежутка             : 26  мс. (0,63 видеокадр)
Время предзагрузки промежутка            : 522  мс.

Постеры

Соцсети

 

Статистика

Автор: Nik
Добавлен: 05 авг 2013, 23:33
Размер: 1.12 ГБ
Размер: 1 198 576 222 байт
Сидеров: 45
Личеров: 11
Скачали: 2
Здоровье: 100%
Раздающих: 100%
Скорость скачивания: 0 байт/сек
Скорость раздачи: 0 байт/сек
Последний сидер: 6 месяцев 20 дней 14 часов 50 минут 26 секунд назад
Последний личер: 16 дней 4 часа 59 минут 36 секунд назад
Приватный: Нет (DHT включён)
Скачать торрент
Скачать торрент
[ Размер 12.25 КБ / Просмотров 17 ]

Поделиться


Вернуться в Фокусы и трюки