Видео


Сообщение

Видео Gamblers Cop by Daniel Madison [2013, Карточная механика, HDTVRip, ENG] (Видеоурок)

Сообщение Nik » 05 авг 2013, 23:33

Gamblers Cop by Daniel Madison

Страна: Великобритания
Тематика: Карточная механика
Тип раздаваемого материала: Видеоурок
Продолжительность: 00:32:43
Год выпуска: 2013

Язык: Английский
Перевод: Отсутствует

Описание: Вариация гамблерс копа от Даниэля Мэдисона.
Помимо самого приёма, в видео, есть несколько техник и фокусов основанных на его применении:
Список
Fastets card to pocket
The turnover switch
Lost and found
Madison squeeze shift
Madison diagonal palm shift
Cop load
In the box
Single card cop
Deck vanish
Доп. информация: Описание на английском, превью, отзывы.

Качество: HDTVRip
Формат: WMV
Видео кодек: VC-1
Аудио кодек: WMA
Видео: VC-1, 960x540(16:9), 1400kbps, 29,970fps
Аудио: WMA, 96kbps, 44,1khz, 2ch
Скриншоты


MediaInfo
Код:
Код: Выделить всё
Формат                                   : Windows Media
Размер файла                             : 351 Мбайт
Продолжительность                        : 32 м.
Режим общего битрейта                    : Постоянный
Общий поток                              : 1499 Кбит/сек
Максимальный общий битрейт               : 1511 Кбит/сек
Название фильма                          : The Gamblers Cop with Daniel Madison
Исполнитель                              : Daniel Madison
Дата кодирования                         : UTC 2013-04-23 18:40:34.184
Правообладатель                          : 2013
Примечание                               : A full breakdown and usage of the Gamblers Cop

Видео
Идентификатор                            : 1
Формат                                   : VC-1
Профиль формата                          : MP@HL
Идентификатор кодека                     : WMV3
Идентификатор кодека/Информация          : Windows Media Video 9
Идентификатор кодека/Подсказка           : WMV3
Описание кодека                          : Windows Media Video 9 - Professional
Продолжительность                        : 32 м.
Вид битрейта                             : Постоянный
Битрейт                                  : 1400 Кбит/сек
Ширина                                   : 960 пикселей
Высота                                   : 540 пикселей
Соотношение сторон                       : 16:9
Частота кадров                           : 29,970 кадров/сек
Цветовое пространство                    : YUV
Субдискретизация насыщенности            : 4:2:0
Битовая глубина                          : 8 бит
Тип развёртки                            : Прогрессивная
Метод сжатия                             : С потерями
Бит/(Пиксели*Кадры)                      : 0.090
Размер потока                            : 328 Мбайт (93%)

Аудио
Идентификатор                            : 2
Формат                                   : WMA
Версия формата                           : Version 2
Идентификатор кодека                     : 161
Идентификатор кодека/Информация          : Windows Media Audio
Описание кодека                          : Windows Media Audio 9.2 -  96 kbps, 44 kHz, stereo 1-pass CBR
Продолжительность                        : 32 м.
Вид битрейта                             : Постоянный
Битрейт                                  : 96,0 Кбит/сек
Каналы                                   : 2 канала
Частота                                  : 44,1 КГц
Битовая глубина                          : 16 бит
Размер потока                            : 22,5 Мбайт (6%)

Постеры

Соцсети

 

Статистика

Автор: Nik
Добавлен: 05 авг 2013, 23:33
Размер: 350.9 МБ
Размер: 367 945 173 байт
Сидеров: 78
Личеров: 7
Скачали: 2
Здоровье: 100%
Раздающих: 100%
Скорость скачивания: 0 байт/сек
Скорость раздачи: 0 байт/сек
Последний сидер: 5 месяцев 24 дня 21 час 39 минут 21 секунду назад
Последний личер: 15 дней 4 часа 15 минут 34 секунды назад
Приватный: Нет (DHT включён)
Скачать торрент
Скачать торрент
[ Размер 14.28 КБ / Просмотров 28 ]

Поделиться


Вернуться в Фокусы и трюки