Видео


Сообщение

Видео Advocate by Daniel Madison [2013, Карточные фокусы, DVDRip, ENG] (Видеоурок)

Сообщение Nik » 05 авг 2013, 23:34

Advocate by Daniel Madison

Страна: Великобритания
Тематика: Карточные фокусы
Тип раздаваемого материала: Видеоурок
Продолжительность: 00:33:13
Год выпуска: 2013

Язык: Английский
Перевод: Отсутствует

Описание: Отличная идея позволяющая реализовать множество различных эффектов(в pdf файле 12 вариантов исполнения этого трюка).
Доп. информация: Описание на английском, превью, отзывы.

Качество: DVDRip
Формат: DVD video
Видео кодек: H.264
Аудио кодек: AAC
Видео: H.264, 720x480(3:2), 388kbps, 30fps
Аудио: AAC, 64,1kbps, 44,1kHz, 2ch
Скриншоты


MediaInfo
Код:
Код: Выделить всё
Формат                                   : RealMedia
Размер файла                             : 109 Мбайт
Продолжительность                        : 33 м.
Общий поток                              : 452 Кбит/сек

Видео
Идентификатор                            : 1
Формат                                   : RealVideo 4
Идентификатор кодека                     : RV40
Идентификатор кодека/Информация          : Based on AVC (H.264), Real Player 9
Продолжительность                        : 33 м.
Битрейт                                  : 388 Кбит/сек
Ширина                                   : 720 пикселей
Высота                                   : 480 пикселей
Соотношение сторон                       : 3:2
Частота кадров                           : 30,000 кадров/сек
Стандарт вещания                         : NTSC
Бит/(Пиксели*Кадры)                      : 0.037
Размер потока                            : 92,1 Мбайт (84%)

Аудио
Идентификатор                            : 0
Формат                                   : Cooker
Идентификатор кодека                     : cook
Идентификатор кодека/Информация          : Based on G.722.1, Real Player 6
Продолжительность                        : 33 м.
Битрейт                                  : 64,1 Кбит/сек
Каналы                                   : 2 канала
Частота                                  : 44,1 КГц
Битовая глубина                          : 16 бит
Размер потока                            : 15,2 Мбайт (14%)

Постеры

Соцсети

 

Статистика

Автор: Nik
Добавлен: 05 авг 2013, 23:34
Размер: 158.76 МБ
Размер: 166 469 820 байт
Сидеров: 46
Личеров: 4
Скачали: 6
Здоровье: 100%
Раздающих: 100%
Скорость скачивания: 0 байт/сек
Скорость раздачи: 0 байт/сек
Последний сидер: 5 месяцев 13 дней 6 часов 50 минут 57 секунд назад
Последний личер: 12 дней 9 часов 18 минут 22 секунды назад
Приватный: Нет (DHT включён)
Скачать торрент
Скачать торрент
[ Размер 12.96 КБ / Просмотров 38 ]

Поделиться


Вернуться в Фокусы и трюки