Видео


Сообщение

Видео Е. Коноплев | Секреты работы в Linux [2012] PCRec

Сообщение Sid » 15 авг 2013, 18:01

Е. Коноплев | Секреты работы в Linux [2012] PCRec

Автор (режиссер): Е. Коноплев
Название: Секреты работы в Linux
Год выпуска: 2012
Жанр: обучающее видео
Продолжительность: 01:08:46
Качество видео: PCRec
Видеокодек: DivX 4
Битрейт видео: ~709 kbps
Размер кадра: 1024 x768
Аудиокодек: MP3
Битрейт аудио: 256 kbps

Описание:
Видеокурс «Секреты работы в Linux» раскрывает несколько десятков, интересных (тайных) и очень полезных приёмов (фишек) обращения с Linux. Он позволит иначе посмотреть на многие вещи в администрирование Linux, что конечно же положительно скажется на Вашей компетенции.
01 Просмотр многостраничного вывода команды.
02 Блокирование комбинации клавиш Ctrl+Alt+Del.
03 Быстрое получение информации о системе в Linux.
04 Быстрое получение информации о системе в Solaris.
05 Размонтирование заблокированного DVD-диска.
06 Быстрая очистка экрана.
07 Программа screen.
08 Забытый пароль root`а.
09 Наблюдение за виртуальными консолями.
10 Команда stat.
11 Программа-шутка sl.
12 Информация о системе.
13 wget через прокси-сервер.
14 Безопасный способ копирования файлов между компьютерами.
15 Анализ подключений при DDOS-атаке.
16 Быстрая блокировка IP-адреса.
17 Создание множества каталогов одной командой.
18 Производительность команд.
19 Как быстро начать смотреть видео в Linux?
20 Установка X Window System и KDE.
21 Поиск процесса заблокировавшего файл.
22 Список сетевых подключений пользователя.
23 Инициализация терминала.
24 Огромное число sheets по Linux.
25 Проверка пропускной способности канала.
26 Запуск программы в фоновом режиме.
27 Разрешение обычным пользователям выполнять root-команды.
28 Маска для файлов по умолчанию.
29 Быстрое перемещение между двумя каталогами.
30 Поиск файлов старше определенного времени.
31 Приоритет выполнения процессов.
32 Трассировка вызовов любых команд.
33 Быстрые способы зашифровать архив.
34 Безвозвратное удаление файлов.
35 Простой NAT.
36 Время на консоли в реальном времени.
37 Красивый вывод информации о производительности системы.
38 Консольный плеер для музыки.
39 Мониторинг сетевой подсистемы в реальном времени.
40 Поделить терминал с кем-то еще.
41 Монтируем DVD-диск.
42 Дополнительная безопасность/производительность Linux.
43 Выключение компьютера в определенное время.
44 История перезагрузок сервера.
45 Проверка статуса жестких дисков.
46 Подготовка изображения с вашим e-mail.
47 Получить информацию о BIOS.
48 Генерация паролей.
49 Тестирование производительности Apache.
50 X Forwarding.
51 Какие файлы редактировались за последние сутки в текущей директории.
52 Информация по HDD.
53 Информация по разделу.
54 Модифицировать дату и время создания файла.
55 Еще фишки Linux.
56 Главная фишка
General
Complete name : Е. Коноплев Секреты работы в Linux [2012] PCRec.avi
Format : AVI
Format/Info : Audio Video Interleave
File size : 481 MiB
Duration : 1h 8mn
Overall bit rate : 977 Kbps
Writing application : Lavf52.93.0

Video
ID : 0
Format : MPEG-4 Visual
Format profile : Simple@L1
Format settings, BVOP : No
Format settings, QPel : No
Format settings, GMC : No warppoints
Format settings, Matrix : Default (H.263)
Codec ID : DIVX
Codec ID/Info : Project Mayo
Codec ID/Hint : DivX 4
Duration : 1h 8mn
Bit rate : 709 Kbps
Width : 1 024 pixels
Height : 768 pixels
Display aspect ratio : 4:3
Frame rate : 25.000 fps
Color space : YUV
Chroma subsampling : 4:2:0
Bit depth : 8 bits
Scan type : Progressive
Compression mode : Lossy
Bits/(Pixel*Frame) : 0.036
Stream size : 349 MiB (73%)
Writing library : Lavc52.108.0

Audio
ID : 1
Format : MPEG Audio
Format version : Version 1
Format profile : Layer 3
Mode : Joint stereo
Mode extension : MS Stereo
Codec ID : 55
Codec ID/Hint : MP3
Duration : 1h 8mn
Bit rate mode : Constant
Bit rate : 256 Kbps
Channel(s) : 2 channels
Sampling rate : 44.1 KHz
Compression mode : Lossy
Stream size : 126 MiB (26%)
Alignment : Aligned on interleaves
Interleave, duration : 26 ms (0.65 video frame)
Writing library : LAME3.98.4
Скриншоты:



Время раздачи: 24/7 (круглосуточно) - до 5 скачавших, далее по возможности.

Постеры

Соцсети

 

Статистика

Автор: Sid
Добавлен: 15 авг 2013, 18:01
Размер: 480.66 МБ
Размер: 504 004 414 байт
Сидеров: 594
Личеров: 16
Скачали: 12
Здоровье: 100%
Раздающих: 100%
Скорость скачивания: 0 байт/сек
Скорость раздачи: 0 байт/сек
Последний сидер: 5 дней 5 часов 24 минуты 3 секунды назад
Последний личер: 5 дней 5 часов 24 минуты 3 секунды назад
Приватный: Нет (DHT включён)
Linux, Unix Скачать торрент
Скачать торрент
[ Размер 19.64 КБ / Просмотров 64 ]

Поделиться


Вернуться в Linux, Unix