Видео


Сообщение

Видео Елена Виноградова | Photoshop.Витражное окно [2012] PCRec

Сообщение Sid » 15 авг 2013, 18:06

Елена Виноградова | Photoshop.Витражное окно [2012] PCRec

Автор (режиссер): Елена Виноградова
Название: Photoshop.Витражное окно
Год выпуска: 2012
Жанр: Обучающий
Продолжительность: 00:21:41
Качество видео: PCRec
Видеокодек: MPEG4 (AVC)
Битрейт видео: ~5610 Kbps
Размер кадра: 1152х720
Аудиокодек: AAC
Битрейт аудио: 124 kb/s, 1 ch

Описание:
Очередной очень даже симпатичный спецэффектик в формате видеоурока...
"На этот раз Елена Виноградова подготовила для вас потрясающий урок по созданию витражного окна! В работе вы будете использовать смарт-объекты и смарт-фильтры, а также стили слоя, корректирующие слои, будете работать с каналами и масками слоя. Так что урок обещает быть очень интересным и сложным в техническом плане, но следуя точным рекомендациям Елены, вы легко его одолеете".
General
Complete name : Витражное стекло в Фотошопе.mp4
Format : MPEG-4
Format profile : Base Media / Version 2
Codec ID : mp42
File size : 99.6 MiB
Duration : 21mn 41s
Overall bit rate : 642 Kbps
Encoded date : UTC 2012-06-08 23:06:18
Tagged date : UTC 2012-06-08 23:06:18

Video
ID : 1
Format : AVC
Format/Info : Advanced Video Codec
Format profile :
Format settings, CABAC : Yes
Format settings, ReFrames : 1 frame
Codec ID : avc1
Codec ID/Info : Advanced Video Coding
Duration : 21mn 41s
Bit rate mode : Variable
Bit rate : 564 Kbps
Maximum bit rate : 5 610 Kbps
Width : 1 152 pixels
Height : 720 pixels
Display aspect ratio : 1.600
Frame rate mode : Constant
Frame rate : 10.000 fps
Color space : YUV
Chroma subsampling : 4:2:0
Bit depth : 8 bits
Scan type : Progressive
Bits/(Pixel*Frame) : 0.068
Stream size : 87.5 MiB (88%)
Tagged date : UTC 2012-06-08 23:06:18

Audio
ID : 2
Format : AAC
Format/Info : Advanced Audio Codec
Format profile : LC
Codec ID : 40
Duration : 21mn 41s
Bit rate mode : Variable
Bit rate : 76.0 Kbps
Maximum bit rate : 124 Kbps
Channel(s) : 1 channel
Channel positions : Front: C
Sampling rate : 44.1 KHz
Compression mode : Lossy
Stream size : 11.8 MiB (12%)
Title : IsoMedia File Produced by Google, 5-11-2011
Encoded date : UTC 2012-06-08 23:06:18
Tagged date : UTC 2012-06-08 23:06:18
Скриншоты:




Время раздачи: 24/7 (круглосуточно) - до 5 скачавших, далее по возможности.

Постеры

Соцсети

 

Статистика

Автор: Sid
Добавлен: 15 авг 2013, 18:06
Размер: 99.63 МБ
Размер: 104 466 289 байт
Сидеров: 1
Личеров: 1
Скачали: 1
Здоровье: 100%
Раздающих: 100%
Скорость скачивания: 0 байт/сек
Скорость раздачи: 0 байт/сек
Последний сидер: 3 месяца 27 дней 1 час 16 минут 16 секунд назад
Последний личер: 3 месяца 27 дней 1 час 16 минут 16 секунд назад
Приватный: Нет (DHT включён)
Скачать торрент
Скачать торрент
[ Размер 16.47 КБ / Просмотров 2 ]

Поделиться


  • Похожие торренты
    Ответы
    Просмотры
    Последнее сообщение

Вернуться в Adobe Photoshop