Видео


Сообщение

Видео Елена Виноградова | Photoshop.Рисунок акварелью [2011] PCRec

Сообщение Sid » 15 авг 2013, 18:08

Елена Виноградова | Photoshop.Рисунок акварелью [2011] PCRec

Автор (режиссер): Елена Виноградова
Название: Photoshop.Рисунок акварелью
Год выпуска: 2011
Жанр: Обучающий
Продолжительность: 00:23:46
Качество видео: PCRec
Видеокодек: MPEG4 (AVC)
Битрейт видео: ~211 Kbps
Размер кадра: 1000ч740
Аудиокодек: AAC
Битрейт аудио: 93 kb/s, 2 ch

Описание:
В видеоуроке автор расскажет, как превратить фотографию в акварельный рисунок. Вы узнаете, как правильно можно использовать Архивную художественную кисть! Архив содержит рабочие материалы для урока: кисти и текстуры.
General
Format : MPEG-4
Format profile : Base Media / Version 2
Codec ID : mp42
File size : 52.1 MiB
Duration : 23mn 46s
Overall bit rate : 306 Kbps
Encoded date : UTC 2011-01-16 11:46:58
Tagged date : UTC 2011-01-16 11:46:58

Video
ID : 1
Format : AVC
Format/Info : Advanced Video Codec
Format profile :
Format settings, CABAC : Yes
Format settings, ReFrames : 4 frames
Codec ID : avc1
Codec ID/Info : Advanced Video Coding
Duration : 23mn 46s
Bit rate mode : Variable
Bit rate : 211 Kbps
Width : 1 000 pixels
Height : 740 pixels
Display aspect ratio : 4:3
Frame rate mode : Constant
Frame rate : 6.000 fps
Color space : YUV
Chroma subsampling : 4:2:0
Bit depth : 8 bits
Scan type : Progressive
Bits/(Pixel*Frame) : 0.048
Stream size : 35.9 MiB (69%)
Language : English
Encoded date : UTC 2011-01-16 11:46:58
Tagged date : UTC 2011-01-16 11:46:58
Color primaries : BT.709-5, BT.1361, IEC 61966-2-4, SMPTE RP177
Transfer characteristics : BT.709-5, BT.1361
Matrix coefficients : BT.709-5, BT.1361, IEC 61966-2-4 709, SMPTE RP177

Audio
ID : 2
Format : AAC
Format/Info : Advanced Audio Codec
Format profile : LC
Codec ID : 40
Duration : 23mn 45s
Bit rate mode : Constant
Bit rate : 93.7 Kbps
Channel(s) : 2 channels
Channel positions : Front: L R
Sampling rate : 44.1 KHz
Compression mode : Lossy
Stream size : 15.9 MiB (31%)
Language : English
Encoded date : UTC 2011-01-16 11:46:58
Tagged date : UTC 2011-01-16 11:46:58
Скриншоты:




Время раздачи: 24/7 (круглосуточно) - до 5 скачавших, далее по возможности.

Постеры

Соцсети

 

Статистика

Автор: Sid
Добавлен: 15 авг 2013, 18:08
Размер: 52.08 МБ
Размер: 54 613 548 байт
Сидеров: 2
Личеров: 1
Скачали: 0
Здоровье: 100%
Раздающих: 100%
Скорость скачивания: 0 байт/сек
Скорость раздачи: 0 байт/сек
Последний сидер: 3 месяца 30 дней 18 часов 15 минут 43 секунды назад
Последний личер: 3 месяца 30 дней 18 часов 15 минут 43 секунды назад
Приватный: Нет (DHT включён)
Скачать торрент
Скачать торрент
[ Размер 17.18 КБ / Просмотров 2 ]

Поделиться


  • Похожие торренты
    Ответы
    Просмотры
    Последнее сообщение

Вернуться в Adobe Photoshop