Видео


Сообщение

Видео Елена Виноградова | Photoshop.Рисунок тушью или чернилами на бумаге [2012] PCRec

Сообщение Sid » 15 авг 2013, 18:09

Елена Виноградова | Photoshop.Рисунок тушью или чернилами на бумаге [2012] PCRec

Автор (режиссер): Елена Виноградова
Название: Photoshop.Рисунок тушью или чернилами на бумаге
Год выпуска: 2012
Жанр: Обучающий
Продолжительность: 00:11:42
Качество видео: PCRec
Видеокодек: MPEG4 (AVC)
Битрейт видео: ~313 Kbps
Размер кадра: 1280х800
Аудиокодек: AAC
Битрейт аудио: 64 kb/s, 1 ch

Описание:
"В этом видеоуроке Елена Виноградова покажет Вам, как превратить фотографию в рисунок тушью или чернилами на бумаге. Вы сможете применить этот способ к различным фотографиям, например, к фото с животными, какими-либо предметами или людьми".
Я попробовал применить... Мне понравилось. И техника и результат понравились. И, не смотря на то, что имитационных уроков у нас не мало было, это очень и очень... Кстати, все текстуры и маски в архиве.
General
Format : MPEG-4
Format profile : Base Media
Codec ID : isom
File size : 31.9 MiB
Duration : 11mn 42s
Overall bit rate : 380 Kbps
Writing application : XviD4PSP 6.0 / 53.31.100

Video
ID : 1
Format : AVC
Format/Info : Advanced Video Codec
Format profile :
Format settings, CABAC : Yes
Format settings, ReFrames : 3 frames
Codec ID : avc1
Codec ID/Info : Advanced Video Coding
Duration : 11mn 42s
Bit rate mode : Variable
Bit rate : 313 Kbps
Width : 1 280 pixels
Height : 800 pixels
Display aspect ratio : 1.600
Frame rate mode : Constant
Frame rate : 10.000 fps
Color space : YUV
Chroma subsampling : 4:2:0
Bit depth : 8 bits
Scan type : Progressive
Bits/(Pixel*Frame) : 0.031
Stream size : 26.2 MiB (82%)
Writing library : x264 core 120 r2146M bcd41db
Encoding settings : cabac=1 / ref=3 / deblock=1:0:0 / analyse=0x3:0x133 / me=hex / subme=7 / psy=1 / psy_rd=1.00:0.20 / mixed_ref=1 / me_range=16 / chroma_me=1 / trellis=1 / 8x8dct=1 / cqm=0 / deadzone=21,11 / fast_pskip=1 / chroma_qp_offset=-3 / threads=8 / sliced_threads=0 / nr=0 / decimate=1 / interlaced=0 / bluray_compat=0 / constrained_intra=0 / bframes=3 / b_pyramid=1 / b_adapt=2 / b_bias=0 / direct=3 / weightb=1 / open_gop=0 / weightp=2 / keyint=100 / keyint_min=10 / scenecut=40 / intra_refresh=0 / rc_lookahead=40 / rc=crf / mbtree=1 / crf=21.0 / qcomp=0.60 / qpmin=10 / qpmax=51 / qpstep=4 / ip_ratio=1.40 / aq=1:1.00

Audio
ID : 2
Format : AAC
Format/Info : Advanced Audio Codec
Format profile : LC
Codec ID : 40
Duration : 11mn 42s
Bit rate mode : Constant
Bit rate : 64.0 Kbps
Channel(s) : 1 channel
Channel positions : Front: C
Sampling rate : 44.1 KHz
Compression mode : Lossy
Stream size : 5.36 MiB (17%)
Скриншоты:




Время раздачи: 24/7 (круглосуточно) - до 5 скачавших, далее по возможности.

Постеры

Соцсети

 

Статистика

Автор: Sid
Добавлен: 15 авг 2013, 18:09
Размер: 31.86 МБ
Размер: 33 412 262 байт
Сидеров: 1
Личеров: 1
Скачали: 0
Здоровье: 100%
Раздающих: 100%
Скорость скачивания: 0 байт/сек
Скорость раздачи: 0 байт/сек
Последний сидер: 4 месяца 2 дня 1 час 33 минуты 26 секунд назад
Последний личер: 4 месяца 2 дня 1 час 33 минуты 26 секунд назад
Приватный: Нет (DHT включён)
Скачать торрент
Скачать торрент
[ Размер 20.8 КБ / Просмотров 2 ]

Поделиться


  • Похожие торренты
    Ответы
    Просмотры
    Последнее сообщение

Вернуться в Adobe Photoshop