Видео


Сообщение

Видео Yandex | Курсы информационных технологий: второй набор [2011, RUS]

Сообщение Stepan » 21 янв 2012, 15:33

Год выпуска: 2011
Производитель: Яндекс
Сайт производителя: http://company.yandex.ru/academic/kit/2.xml
Автор: Виктор Ашик, Алексей Иванов, Дмитрий Бурмистров, Антон Карпов, Павел Потапенков, Владимир Смирнов, Павел Пушкарёв
Продолжительность: 15 часов
Тип раздаваемого материала: Лекции
Язык: Русский

Описание: Второй Курс информационных технологий (КИТ) начался 3 октября 2011 года. Курс предназначен для студентов и молодых специалистов, которые хотели бы глубже познакомиться с внутренним устройством операционной системы Linux.
Курс состоял из десяти лекций, на которых мы рассказали о работе системного администратора и осветили следующие темы:

Содержание
Чем занимается системный администратор (Алексей Иванов)
Операционные системы (Виктор Ашик)
Архитектура ЭВМ (Виктор Ашик)
Популярный Linux (Виктор Ашик)
Системы хранения данных (Виктор Ашик)
Сети протоколы сетевое оборудование (Дмитрий Бурмистров)
Файловые системы (Виктор Ашик)
Информационная безопасность (Антон Карпов)
Виртуализация (Павел Потапенков и Владимир Смирнов)
Основы MySQL (Павел Пушкарёв)
MediaInfo
00
General
Complete name : D:\video\yakit2\00_КИТ2_Чем_занимается_системный_администратор.m4v
Format : MPEG-4
Format profile : Base Media / Version 2
Codec ID : mp42
File size : 427 MiB
Duration : 53mn 18s
Overall bit rate mode : Variable
Overall bit rate : 1 120 Kbps
Encoded date : UTC 2011-11-30 10:32:14
Tagged date : UTC 2011-11-30 11:13:29
Writing application : HandBrake 0.9.5 2011010300
Video
ID : 1
Format : AVC
Format/Info : Advanced Video Codec
Format profile : High@L3.0
Format settings, CABAC : Yes
Format settings, ReFrames : 4 frames
Codec ID : avc1
Codec ID/Info : Advanced Video Coding
Duration : 53mn 18s
Bit rate mode : Variable
Bit rate : 956 Kbps
Width : 640 pixels
Height : 352 pixels
Display aspect ratio : 16:9
Frame rate mode : Variable
Frame rate : 29.970 fps
Minimum frame rate : 20.000 fps
Maximum frame rate : 59.761 fps
Color space : YUV
Chroma subsampling : 4:2:0
Bit depth : 8 bits
Scan type : Progressive
Bits/(Pixel*Frame) : 0.142
Stream size : 364 MiB (85%)
Writing library : x264 core 112
Encoding settings : cabac=1 / ref=3 / deblock=1:0:0 / analyse=0x3:0x113 / me=hex / subme=7 / psy=1 / psy_rd=1.00:0.00 / mixed_ref=1 / me_range=16 / chroma_me=1 / trellis=1 / 8x8dct=1 / cqm=0 / deadzone=21,11 / fast_pskip=1 / chroma_qp_offset=-2 / threads=6 / sliced_threads=0 / nr=0 / decimate=1 / interlaced=0 / constrained_intra=0 / bframes=3 / b_pyramid=2 / b_adapt=1 / b_bias=0 / direct=1 / weightb=1 / open_gop=0 / weightp=2 / keyint=300 / keyint_min=29 / scenecut=40 / intra_refresh=0 / rc_lookahead=40 / rc=crf / mbtree=1 / crf=20.0 / qcomp=0.60 / qpmin=3 / qpmax=51 / qpstep=4 / ip_ratio=1.40 / aq=1:1.00
Encoded date : UTC 2011-11-30 10:32:14
Tagged date : UTC 2011-11-30 11:13:29
Color primaries : BT.601-6 525, BT.1358 525, BT.1700 NTSC, SMPTE 170M
Transfer characteristics : BT.709-5, BT.1361
Matrix coefficients : BT.601-6 525, BT.1358 525, BT.1700 NTSC, SMPTE 170M
Audio
ID : 2
Format : AAC
Format/Info : Advanced Audio Codec
Format profile : LC
Codec ID : 40
Duration : 53mn 18s
Bit rate mode : Variable
Bit rate : 160 Kbps
Maximum bit rate : 279 Kbps
Channel(s) : 2 channels
Channel positions : Front: L R
Sampling rate : 48.0 KHz
Compression mode : Lossy
Stream size : 61.0 MiB (14%)
Encoded date : UTC 2011-11-30 10:32:14
Tagged date : UTC 2011-11-30 11:13:29
09
General
Complete name : D:\video\yakit2\09_КИТ2_Основы_MySQL1.m4v
Format : MPEG-4
Format profile : Base Media / Version 2
Codec ID : mp42
File size : 666 MiB
Duration : 1h 42mn
Overall bit rate mode : Variable
Overall bit rate : 905 Kbps
Encoded date : UTC 2011-12-06 23:41:46
Tagged date : UTC 2011-12-07 00:43:21
Writing application : HandBrake 0.9.5 2011010300
Video
ID : 1
Format : AVC
Format/Info : Advanced Video Codec
Format profile : High@L3.0
Format settings, CABAC : Yes
Format settings, ReFrames : 4 frames
Codec ID : avc1
Codec ID/Info : Advanced Video Coding
Duration : 1h 42mn
Bit rate mode : Variable
Bit rate : 739 Kbps
Width : 640 pixels
Height : 352 pixels
Display aspect ratio : 16:9
Frame rate mode : Variable
Frame rate : 29.970 fps
Minimum frame rate : 20.000 fps
Maximum frame rate : 59.761 fps
Color space : YUV
Chroma subsampling : 4:2:0
Bit depth : 8 bits
Scan type : Progressive
Bits/(Pixel*Frame) : 0.109
Stream size : 544 MiB (82%)
Writing library : x264 core 112
Encoding settings : cabac=1 / ref=3 / deblock=1:0:0 / analyse=0x3:0x113 / me=hex / subme=7 / psy=1 / psy_rd=1.00:0.00 / mixed_ref=1 / me_range=16 / chroma_me=1 / trellis=1 / 8x8dct=1 / cqm=0 / deadzone=21,11 / fast_pskip=1 / chroma_qp_offset=-2 / threads=6 / sliced_threads=0 / nr=0 / decimate=1 / interlaced=0 / constrained_intra=0 / bframes=3 / b_pyramid=2 / b_adapt=1 / b_bias=0 / direct=1 / weightb=1 / open_gop=0 / weightp=2 / keyint=300 / keyint_min=29 / scenecut=40 / intra_refresh=0 / rc_lookahead=40 / rc=crf / mbtree=1 / crf=20.0 / qcomp=0.60 / qpmin=3 / qpmax=51 / qpstep=4 / ip_ratio=1.40 / aq=1:1.00
Encoded date : UTC 2011-12-06 23:41:46
Tagged date : UTC 2011-12-07 00:43:21
Color primaries : BT.601-6 525, BT.1358 525, BT.1700 NTSC, SMPTE 170M
Transfer characteristics : BT.709-5, BT.1361
Matrix coefficients : BT.601-6 525, BT.1358 525, BT.1700 NTSC, SMPTE 170M
Audio
ID : 2
Format : AAC
Format/Info : Advanced Audio Codec
Format profile : LC
Codec ID : 40
Duration : 1h 42mn
Bit rate mode : Variable
Bit rate : 160 Kbps
Maximum bit rate : 258 Kbps
Channel(s) : 2 channels
Channel positions : Front: L R
Sampling rate : 48.0 KHz
Compression mode : Lossy
Stream size : 118 MiB (18%)
Encoded date : UTC 2011-12-06 23:41:46
Tagged date : UTC 2011-12-07 00:43:21
Формат видео: MPEG-4
Видео: AVC, 640x352, 16/9, 20-59 к/с, ~956 Кбит/сек (переменный)
Аудио: AAC, 48.0 КГц, 160-279 Кбит/сек, стерео
Скриншоты
Доп. информация: MP4 контейнер с x264+AAC, кодировал специально для iOS, но играться должно везде. (В том числе на symbian и android). От оригинальных файлов отличается кодеком и сжатием — потерь в качестве изображения нет, цель кодирования — уменьшение объёма файлов.

Постеры

Соцсети

 

Re: Yandex | Курсы информационных технологий: второй набор [2011, RUS]

Сообщение itmonster » 31 янв 2012, 20:06

:arrow: Prosto super
Аватара пользователя
itmonster
 


Вернуться в Linux, Unix



Кто сейчас на конференции

Сейчас эту тему просматривают: CCBot и гости: 0