Видео


Сообщение

Видео Василий Солдатов | Как повысить доступность Центра обработки данных [2013] PCRec

Сообщение Tutorial » 07 сен 2013, 21:02

Василий Солдатов | Как повысить доступность Центра обработки данных [2013] PCRec

Автор (режиссер): Василий Солдатов
Название: Как повысить доступность Центра обработки данных
Год выпуска: 2013
Жанр: Обучающий
Продолжительность: 01:09:00
Качество видео: PCRec
Видеокодек: MPEG-4
Битрейт видео: ~948 Kbps
Размер кадра: 1920х1080
Аудиокодек: AAC
Битрейт аудио: 192 kb/s, 2 ch

Описание:
Современный ЦОД обязан стремиться к 100% доступности своих сервисов. Именно поэтому инженеры и проектировщики дата-центров должны обеспечивать безотказный и высокоскоростной доступ к данным клиента. Такую задачу помогают решить балансировщики трафика, ставшие обязательным элементом в структуре ЦОД. О том, как повысить качество услуг дата-центра, расскажет системный инженер Brocade, компании-лидера рынка высокотехнологичных балансировщиков трафика.

Принципы организации и требования, предъявляемые к современному ЦОД
Что такое балансировщики и какую роль они играют в ЦОД
Основные отличия ServerIron ADX от продуктов других производителей
Возможности увеличения производительности устройства
Схемы отказоустойчивости Active-Active/Standby, GSLB
Централизованное управление ServerIron ADX
Виртуализация, аппаратное разделение ресурсов
Типовые схемы применения
General
Format : MPEG-4
Format profile : Base Media / Version 2
Codec ID : mp42
File size : 566 MiB
Duration : 1h 9mn
Overall bit rate : 1 143 Kbps
Encoded date : UTC 2013-08-16 09:40:01
Tagged date : UTC 2013-08-16 09:40:01

Video
ID : 1
Format : AVC
Format/Info : Advanced Video Codec
Format profile :
Format settings, CABAC : Yes
Format settings, ReFrames : 1 frame
Codec ID : avc1
Codec ID/Info : Advanced Video Coding
Duration : 1h 9mn
Bit rate mode : Variable
Bit rate : 948 Kbps
Maximum bit rate : 4 073 Kbps
Width : 1 920 pixels
Height : 1 080 pixels
Display aspect ratio : 16:9
Frame rate mode : Constant
Frame rate : 25.000 fps
Color space : YUV
Chroma subsampling : 4:2:0
Bit depth : 8 bits
Scan type : Progressive
Bits/(Pixel*Frame) : 0.018
Stream size : 470 MiB (83%)
Tagged date : UTC 2013-08-16 09:42:57

Audio
ID : 2
Format : AAC
Format/Info : Advanced Audio Codec
Format profile : LC
Codec ID : 40
Duration : 1h 9mn
Bit rate mode : Variable
Bit rate : 192 Kbps
Maximum bit rate : 201 Kbps
Channel(s) : 2 channels
Channel positions : Front: L R
Sampling rate : 44.1 KHz
Compression mode : Lossy
Stream size : 95.1 MiB (17%)
Title : IsoMedia File Produced by Google, 5-11-2011
Encoded date : UTC 2013-08-16 09:41:25
Tagged date : UTC 2013-08-16 09:42:57
Скриншоты:



Время раздачи: 24/7 (круглосуточно) - до 5 скачавших, далее по возможности.

Постеры

Соцсети

 

Вернуться в Сеть и безопасность



Кто сейчас на конференции

Сейчас эту тему просматривают: Mediapartners-Google и гости: 1