Видео


Сообщение

Видео Клуб Микки Мауса: Минни собирает друзей / Minnie's Bow-Tique [2010, DVDRip]

Сообщение Таточка » 21 янв 2012, 18:50

Русское название: Клуб Микки Мауса: Минни собирает друзей
Оригинальное название: Minnie's Bow-Tique
Год выпуска: 2010
Жанр: 3D Анимация, Обучающее видео для детей


Церемония торжественного открытия!
Минни Маус собирает друзей на церемонию торжественного открытия нового магазина, где ты найдешь огромную коллекцию первоклассных бантов и бабочек. Смотри, как меняет цвет волшебный бант настроения Дейзи.
Скажи «сыр», улыбнись перед фотоаппаратом-бабочкой Дональда Дака и помоги поймать стайку улетевших галстуков-бабочек. Похоже, здесь для всех найдется занятие…
У Пита возникла проблема: он хочет приобрести подарок для своей тети Мэйбл, но никогда раньше не выбирал бантов для дам. Минни, Тудлз и ТЫ должны помочь ему подобрать идеальный подарок. Затем вместе со своими друзьями из Клуба устройте пижамную вечеринку, сходите на пикник в Парк Микки Мауса — веселитесь от души!

Режиссер: Шери Поллак / Sherie Pollack
Актеры: Микки, Минни, Гуфи, Пит и другие

Список серий:
01 - Пижамная вечеринка
02 - Бантики Минни
03 - Пчелиная история
04 - Пикник


Продолжительность: 4 х ~ 00:23:00 минуты серия
Перевод: Полное дублирование + Оригинал
Качество видео: DVDRip
Аудио кодек: AC3
Видео: - XviD, 704х512 (1,38:1), 25.000 fps, 1433 kbps avg, 0.16 bit/pixel
Аудио_1: Русский - AC3, 48.000 kHz, Dolby Digital 2/0 (L,R), 192.00 kbps avg
Аудио_2: Английский - AC3, 48.000 kHz, Dolby Digital 2/0 (L,R), 192.00 kbps avg


Релиз от: пуз.карапуз
media info сделан для серии - "Пижамная вечеринка"

Video
ID: 0
Format: MPEG-4 Visual
Format profile: Advanced Simple@L5
Format settings, BVOP: Yes
Format settings, QPel: No
Format settings, GMC: No warppoints
Format settings, Matrix: Default (MPEG)
Muxing mode: Packed bitstream
Codec ID: XVID
Codec ID/Hint: XviD
Duration: 23mn 1s
Bit rate: 1 433 Kbps
Width: 704 pixels
Height: 512 pixels
Display aspect ratio: 1.375
Frame rate: 25.000 fps
Color space: YUV
Chroma subsampling: 4:2:0
Bit depth: 8 bits
Scan type: Progressive
Bits/(Pixel*Frame): 0.159
Stream size: 236 MiB (78%)
Writing library: XviD 1.2.1 (UTC 2008-12-04)

Audio #1
ID: 1
Format: AC-3
Format/Info: Audio Coding 3
Format profile: Dolby Digital
Mode extension: CM (complete main)
Codec ID: 2000
Duration: 23mn 1s
Bit rate mode: Constant
Bit rate: 192 Kbps
Channel(s): 2 channels
Channel positions: Front: L R
Sampling rate: 48.0 KHz
Video delay: 24ms
Stream size: 31.6 MiB (10%)
Alignment: Split accross interleaves
Interleave, duration: 40 ms (1.00 video frame)
Interleave, preload duration: 500 ms

Audio #2
ID: 2
Format: AC-3
Format/Info: Audio Coding 3
Mode extension: CM (complete main)
Codec ID: 2000
Duration: 23mn 1s
Bit rate mode: Constant
Bit rate: 192 Kbps
Channel(s): 2 channels
Channel positions: Front: L R
Sampling rate: 48.0 KHz
Video delay: 24ms
Stream size: 31.6 MiB (10%)
Alignment: Split accross interleaves
Interleave, duration: 40 ms (1.00 video frame)
Interleave, preload duration: 500 ms
Скриншоты:

Постеры

Соцсети

 

Статистика

Автор: Таточка
Добавлен: 21 янв 2012, 18:50
Размер: 1.18 ГБ
Размер: 1 264 605 184 байт
Сидеров: 1
Личеров: 4
Скачали: 0
Здоровье: 25%
Раздающих: 100%
Изменил: Stepan (22 янв 2012, 16:25)
Скорость скачивания: 0 байт/сек
Скорость раздачи: 0 байт/сек
Последний сидер: 17 дней 16 часов 27 минут 21 секунду назад
Последний личер: 17 дней 16 часов 27 минут 21 секунду назад
Приватный: Нет (DHT включён)
Скачать торрент
Скачать торрент
[ Размер 12.74 КБ / Просмотров 0 ]

Поделиться


  • Похожие торренты
    Ответы
    Просмотры
    Последнее сообщение

Вернуться в Развитие и воспитание детей (0-5 лет)