Видео


Сообщение

Видео Lynda.com | Photoshop для дизайнеров: Фильтры (2013) [PCRec]

Сообщение Nik » 21 сен 2013, 11:29

Lynda.com | Photoshop для дизайнеров: Фильтры (2013) [PCRec]

Автор (режиссер): Lynda.com
Название: Photoshop для дизайнеров: Фильтры
Оригинальное название: Photoshop for Designers: Filters
Год выпуска: 2013
Жанр: Обучающее видео
Язык: английский
Продолжительность: 05:37:00
Качество видео: PCRec
Видеокодек: MPEG4 (H.264)
Битрейт видео: ~300~1500 Kbps VBR
Размер кадра: 960x540
Аудиокодек: AAC
Битрейт аудио: ~128~160 Kbps VBR 48.0 KHz

Описание:
Являясь частью Adobe Photoshop, фильтры, тем не менее, нередко применяются неправильно либо вообще не используются дизайнерами. Автор курса Найджел Френч (Nigel French) учит творчески подходить к использованию фильтров, объясняя, как можно сочетать их друг с другом и другими инструментами Photoshop для получения максимального эффекта, как использовать режимы наложения и маски фильтров, как создавать уникальные комбинации фильтров.
В раздачу включены файлы к урокам.
Filters are a part of Adobe Photoshop often misused or overlooked by designers. Author Nigel French teaches a creative approach to filters, explaining how to combine them both with other filters and with the Photoshop masking and blending tools for maximum visual impact. Plus, learn how to use filter blending modes, filter masks, and how to stack filters to create unique filter combinations.

Topics include:
    Understanding the importance of Smart Filters
    Sharpening with filters
    Creative use of filter blend modes
    Painting in the effect of a filter using filter masks
    Combining filters
Welcome (1m 3s)
Using the exercise files (42s)
Designing with filters (1m 25s)
Terms, keyboard shortcuts, and menus (6m 47s)
The importance of Smart Filters (2m 50s)
Understanding filter blend modes (1m 47s)
Using filter masks (1m 49s)
The stacking order of filters (3m 28s)
Sharpening overview (4m 17s)
Unsharp Mask and Smart Sharpen (4m 22s)
Sharpening with Vivid Light and Surface Blur (4m 51s)
Sharpening with Gaussian Blur (5m 38s)
High-pass sharpening (1m 41s)
Sharpening and line art (3m 12s)
Using Field Blur to vary focus in a scene (3m 22s)
Using Iris Blur to accentuate a foreground (3m 9s)
Using Iris Blur with the Bokeh effect (2m 57s)
Creating an abstract bokeh background (3m 38s)
Creating a tilt-shift effect (4m 27s)
Creating a blur effect with Motion Blur and Puppet Warp (6m 31s)
Using Motion Blur to create a starburst effect (2m 9s)
Creating a radial blur (2m 13s)
An overview of the Filter Gallery (3m 44s)
Beyond the Colored Pencil (4m 47s)
Using the Cutout filter: Part one (9m 50s)
Using the Cutout filter: Part two (4m 46s)
Using the Cutout filter: Part three (6m 48s)
The Dry Brush filter (2m 48s)
Looking at the Fresco filter (4m 31s)
Turning on the neon (5m 32s)
Using the Poster Edges filter (3m 11s)
The Angled Strokes filter (3m 32s)
The Crosshatch filter (4m 24s)
The Ink Outlines filter (7m 15s)
Sumi-e (5m 10s)
Creating a circular image with the Polar Coordinates filter (8m 7s)
Applying distort filters to shape layers (7m 19s)
Creating marbled paper with the Wave filter (7m 46s)
Creating Art Nouveau type with the ZigZag filter (3m 49s)
Using the Color Halftone filter (3m 59s)
Using Color Halftone for a black-and-white halftone effect (4m 17s)
Creating a line drawing with the Fragment filter (3m 0s)
Creating an authentic mezzotint (9m 31s)
Creating a misregistration effect (2m 15s)
Experimenting with pointillist techniques (7m 32s)
Creating a woodgrain effect with Fibers (3m 16s)
Distressing a photo with Fibers and Difference Clouds (7m 56s)
Creating synthetic textures with the Clouds filter (2m 25s)
Adding drama with Lens Flare (6m 27s)
Using Lighting Effects with a texture map (5m 44s)
Creating a patchwork effect (4m 31s)
Combining Bas Relief with Lighting Effects (8m 8s)
Creating a charcoal portrait (3m 54s)
Making it shine with the Chrome filter (5m 47s)
Creating a portrait with the Graphic Pen filter (4m 5s)
Creating a circular halftone effect (5m 12s)
Creating a line halftone effect with a displacement map (4m 35s)
Creating a scan-line effect (4m 58s)
Creating a hand-painted look using the Photocopy filter (7m 19s)
Creating a "cut paper collage" using the Stamp filter (5m 30s)
Creating a painterly look with the Diffuse filter (4m 26s)
Using the Find Edges filter to create a line drawing (3m 49s)
Combining the Find Edges filter with hand painting (8m 22s)
Creating a glowing-edges effect (4m 15s)
Creating effective solarizations (2m 42s)
Creative use of the Tiles and Offset filters (8m 11s)
Creating a line drawing with the Trace Contour filter (6m 54s)
Straightening perspective with Adaptive Wide Angle (4m 45s)
Combining Lens Correction and Adaptive Wide Angle (2m 31s)
Suggestions for working with the Oil Paint filter (5m 24s)
A simple application of the Vanishing Point filter (3m 40s)
Combining the Liquify and Vanishing Point filters (4m 24s)
Third-party filters and beyond (1m 56s)
General
Format : MPEG-4
Format profile : Base Media / Version 2
Codec ID : mp42
Overall bit rate mode : Variable
Overall bit rate : 1 595 Kbps
Encoded date : UTC 2013-04-24 20:29:57
Tagged date : UTC 2013-04-24 20:29:57
Writing library : Apple QuickTime
Copyright : lynda.com

Video
ID : 1
Format : AVC
Format/Info : Advanced Video Codec
Format profile :
Format settings, CABAC : Yes
Format settings, ReFrames : 3 frames
Codec ID : avc1
Codec ID/Info : Advanced Video Coding
Bit rate : 1 462 Kbps
Width : 960 pixels
Height : 540 pixels
Display aspect ratio : 16:9
Frame rate mode : Constant
Frame rate : 30.000 fps
Standard : PAL
Color space : YUV
Chroma subsampling : 4:2:0
Bit depth : 8 bits
Scan type : Progressive
Bits/(Pixel*Frame) : 0.094
Stream size : 11.1 MiB (92%)
Language : English

Audio
ID : 2
Format : AAC
Format/Info : Advanced Audio Codec
Format profile : LC
Codec ID : 40
Bit rate mode : Variable
Bit rate : 128 Kbps
Maximum bit rate : 132 Kbps
Channel(s) : 2 channels
Channel positions : Front: L R
Sampling rate : 48.0 KHz
Compression mode : Lossy
Delay relative to video : 33ms
Stream size : 994 KiB (8%)
Language : English
Скриншоты:



Время раздачи: 24/7 до первых 3 скачавших, далее по возможности

Постеры

Соцсети

 

Статистика

Автор: Nik
Добавлен: 21 сен 2013, 11:29
Размер: 4.27 ГБ
Размер: 4 586 940 953 байт
Сидеров: 60
Личеров: 3
Скачали: 1
Здоровье: 100%
Раздающих: 100%
Скорость скачивания: 0 байт/сек
Скорость раздачи: 0 байт/сек
Последний сидер: 3 месяца 27 дней 1 час 17 минут 15 секунд назад
Последний личер: 3 месяца 27 дней 1 час 17 минут 15 секунд назад
Приватный: Нет (DHT включён)
Скачать торрент
Скачать торрент
[ Размер 32.41 КБ / Просмотров 7 ]

Поделиться


  • Похожие торренты
    Ответы
    Просмотры
    Последнее сообщение

Вернуться в Adobe Photoshop