Видео


Сообщение

Видео Денис Семеновых | Защита компьютера по методу Трикстера (2013) [PCRec]

Сообщение Nik » 21 сен 2013, 11:31

Денис Семеновых | Защита компьютера по методу Трикстера (2013) [PCRec]

Автор (режиссер): Денис Семеновых
Название: Защита компьютера по методу Трикстера
Год выпуска: 2013
Жанр: обучающее видеокурс
Продолжительность: 1:01:45
Качество видео: PCRec
Видеокодек: VP6F
Битрейт видео: ~15fps 819kbps
Размер кадра: 800x600
Аудиокодек: MP3
Битрейт аудио: 22050Hz mono 98kbps
Доп. материалы: Есть

Описание:
В этом курсе содержатся знания, которые помогут вам защитить компьютер без антивируса, поэтому это те данные, которые антивирусные компании очень не хотели бы раскрывать. У Вас будет достаточно знаний, чтобы защитить свой компьютер (и не только свой) от вирусов и очистить его от них, если они конечно там есть.
1-й раздел - Базовые элементы защиты компьютера.
Вы узнаете какие основные настройки нужно сделать сразу после установки операционной системы, чтобы ваш компьютер был действительно защищен от действия вредоносных программ. Также вы узнаете какие бывают виды вредоносных программ и почему антивирусы с ними не справляются. После изучения этой части курса, если вы все сделаете правильно, ваш компьютер будет обладать иммунитетом к большинству компьютерных угроз.

2-й раздел - Максимальная защита.
- Какие действия надо предпринимать хотя бы раз в месяц чтобы ваш компьютер оставался гарантировано здоровым и чистым от вредоносных программ
- Как правильно вычищать вредоносные программы из компьютера если они на него все-таки попали. Большинство пользователей допускают массу ошибок при удалении вредоносных программ, и в результате их действия могут навредить всей системе.
- Узнаете что делать если вирусы блокируют доступ в интернет
- Как защитить свой компьютер от переадресации на другие сайты
- Что делать если вирусы уже на вашем компьютере, если профилактикой заниматься уже поздно, а надо вычищать то что там накопилось
- Если вирусы блокируют запуск программ
- SMS блокираторы
- Избавление от руткитов
- Какие программы стоит использовать в борьбе с вредоносным ПО и как ими пользоваться. Это не антивирусы и они не будут постоянно висеть у вас в памяти и мешать работе.

Бонусы:
1 Создание загрузочного диска
2 Создание образа диска
3 Настройка BIOS для загрузки с CD-DVD
4 Уще раз про BIOS
5 Файловые системы
6 Работа с разделами
7 Размер разделов
Общее
Полное имя : D:\Андрей\ЗАЩИТА
Формат : Flash Video
Размер файла : 4,68 Мбайт
Общий поток : 305 Кбит/сек
Дата кодирования : 2011-09-26 11:38:50
Пометившая программа : On2 Flix SDK for Dshow_2.5.2.0
canseektoend : No

Видео
Формат : VP6
Идентификатор кодека : 4
Битрейт : 819 Кбит/сек
Ширина : 800 пикселей
Высота : 600 пикселей
Соотношение сторон : 4:3
Режим частоты кадров : Постоянный
Частота кадров : 15,000 кадров/сек
Битовая глубина : 8 бит
Бит/(Пиксели*Кадры) : 0.111
Размер потока : 12,3 Мбайт

Аудио
Формат : MPEG Audio
Версия формата : Version 2
Профиль формата : Layer 3
Идентификатор кодека : 2
Идентификатор кодека/Подсказка : MP3
Вид битрейта : Постоянный
Битрейт : 98,0 Кбит/сек
Каналы : 1 канал
Частота : 22,05 КГц
Метод сжатия : С потерями
Размер потока : 1,47 Мбайт (31%)
Библиотека кодирования : LAME3.97 (beta)ЄЄЄЄЄ
Скриншоты:



Время раздачи: 24/7 (круглосуточно)

Постеры

Соцсети

 

Вернуться в Сеть и безопасность



Кто сейчас на конференции

Сейчас эту тему просматривают: CCBot и гости: 0