Видео


Сообщение

Видео [УЦ Advanced Training] ICND1 [2012, RUS]

Сообщение Nik » 22 сен 2013, 23:15

[УЦ Advanced Training] ICND1 [2012, RUS]

Год выпуска: 2012
Производитель: УЦ Advanced Training
Сайт производителя: http://www.atraining.ru
Автор: [Ruslan Karmanov]
Продолжительность: 27:26:50
Тип раздаваемого материала: Видеоурок
Язык: Русский
Описание: Курс ICND1 позволит получить основные знания и навыки, необходимые для установки и настройки оборудования Cisco, а также поиска неисправностей в сетях малого предприятия. Приобретенные умения и навыки позволят настраивать коммутаторы, маршрутизаторы, поддерживать соединение сети филиала с глобальной сетью, обеспечивать безопасность в администрируемой сети – под руководством старших технических специалистов.
Содержание
Состав курса ICND1

Модуль №1 – Фундаментальные сетевые технологии
•Описание задач и функций различных сетевых устройств
•Выбор сетевых компонентов, необходимых для соответствия сетевого решения требуемым бизнес-задачам и условиям
•Использование моделей OSI и TCP/IP, а также связанных с ними протоколов для описания процесса передачи и обработки данных в сети
•Описание типовых сетевых приложений и их характеристик
•Описание назначения и базовых задач и операций протоколов, входящих в состав моделей OSI и TCP/IP
•Воздействие мультимедийных (аудио, видео) и прочих приложений на сеть предприятия
•Как читать и анализировать сетевые диаграммы (схемы)
•Определение маршрута между двумя узлами в сети
•Описание компонентов, необходимых для корректного взаимодействия устройств по локальной сети или по Интернет
•Типовые проблемы на 1,2,3,4 и 7 уровнях модели OSI и способы их решения
•Классификация сетевых технологий – PAN, LAN, CAN, MAN, WAN -сети, их различия и особенности

Лабораторная работа
•Преимущества использования и структурного подхода, реализованного в модели OSI

Дополнительные темы от Advanced Training
•Подуровни канального уровня модели OSI: MAC и LLC
•IPv6: что нового?
•Технологии Flow Control (802.3x), Adaptive Inter-Frame Spacing (AIFS / IFG).
•Работа в half-duplex и full-duplex. Кадры Jumbo frames.

Модуль №2 – Коммутация (switching) в небольших сетях
•Выбор и различия между средами передачи данных, кабелями, разъёмами и модулями для подключения коммутаторов к другим сетевым устройствам и узлам
•Как работает Ethernet (802.3u – 100BASE-TX, 802.3u – 1000BASE-X, 802.3ab – 1000BASE-TX), схема доступа и арбитража среды CDMA/CD
•Эффективная сегментация сети и управление трафиком на уровне коммутации.
•Как работают коммутаторы (стандарт “прозрачного моста” 802.1D, стандарт повторителей 802.3c, схемы буферизации pass-through/store-and-forward)
•Стартовая настройка коммутатора и базовые операции сохранения и загрузки
•Проверка работоспособности сети с использованием простейших утилит – ping, traceroute, telnet, SSH, arp, ipconfig, а также знкомство с контекстом команд show и debug
•Базовые задачи безопасности на access-уровне – port security
•Типовые проблемы подключения (проблемы кабелей и разъёмов, настройки порта, автосогласования и прочие) и их диагностика и разрешение

Модуль №3 – Протоколы сетевого уровня – IPv4, адресация
•Задачи адресации 3го уровня и её специфика
•Протокол TCP и его работа. Управление RWND и размером окна вообще. Технология Selective ACK (SACK). RFC 1323 и TCP Timestamps. Алгоритмы управления размером окна.
•Управление потоком в TCP/IP: ECN
•Разработка и настройка IP-адресации в локальной сети предприятия
•Специфика назначения IP-адресов различным устройствам (рабочим станциям, серверам, сетевому оборудованию)
•Базовые функции NAT – подключение локальной сети к одному провайдеру Internet
•Система DNS – функционал и настройка
•Частная и глобальная адресация – специфика использования, взаимодействия, настройки
•Настройка NAT с использованием инструментария SDM и командной строки (CLI)
•Настройка DHCP-сервера и DNS-ретрансляции на маршрутизаторе с использованием SDM и CLI
•Статическая и динамическая IPv4 адресация в локальной сети. APIPA.
•Поиск и исправление типовых неисправностей и ошибок в настройке протоколов сетевого уровня и адресации

Модуль №4 – Построение сети из нескольких сегментов с использованием маршрутизации
•Базовые задачи маршрутизации – описание процессов packet forwarding, обработка таблицы маршрутизации
•Как работают маршрутизаторы Cisco – процесс загрузки, тестирования оборудования, компоненты и модули, используемые в маршрутизаторах
•Работа протокола RIPv2 – настройка, поиск типовых ошибок, плюсы и минусы использования
•Настрока базовых параметров маршрутизатора с использованием командной строки (CLI)
•Управление и диагностика интерфейсов и портов маршрутизатора
•Проверка работы маршрутизатора и подключения к внешним сетям с использованием утилит командной строки
•Настройка статических маршрутов и маршрутов ‘по умолчанию’
•Работа с конфигурацией IOS – сохранение/загрузка, обновление IOS, работа с встроенной flash-памятью и TFTP-серверами
•Настройка Cisco IOS
•Физическая безопасность сетевых устройств и использование паролей
•Проверка работоспособности сети с использованием простейших утилит – ping, traceroute, telnet, SSH, arp, ipconfig, а также знакомство с контекстом команд show и debug

Модуль №5 – Беспроводные сети стандарта 802.11 – WiFi
•Стандарты, используемые в беспроводных подключениях (802.11, 802.15, 802.16) и стандартизирующие организации – IEEE WI-FI Alliance, ITU/FCC
Термины и базовые вопросы развертывания локальных беспроводных сетей (SSID, BSS, ESS, IBSS)
•Базовые параметры, необходимые для настройки связи WiFi-устройств и точек доступа
•Стандарты безопасности беспроводных сетей – open, WEP, WPA1/2 – сравнение, анализ, использование
•Типовые проблемы и ошибки при развёртывании и настройке беспроводных сетей

Модуль №6 – Безопасность сетевых устройств и способы её обеспечения. Типовые угрозы.
•Классификация сетевых угроз и политика уменьшения рисков по работе с сетевыми устройствами
•Описание настроек безопасности сетевых устройств, обеспечение безопасности сетевых приложений и систем
•Классификация и обзор функционала распространённых сетевых устройств и ПО, реализующих функционал безопасности
•Базовые рекомендации по обеспечению безопасности сетевых устройств

Модуль №7 – Работа с WAN-каналами: настройка и создание подключений к глобальным сетям и Internet
•Типы WAN-подключений, их классификации и специфика.
•Создание и настройка подключения по serial link (V.35 / HDLC / PPP)
•Субпротоколы PPP – LCP и NCP. Управление шифрованием (MPPE) и сжатием (MPPC). Протоколы аутентикации PAP, SPAP, CHAP, MSCHAP, MSCHAPv2, EAP.
отчет MediaInfo
Формат : Windows Media
Размер файла : 98,4 Мбайт
Продолжительность : 5 ч. 31 м.
Режим общего битрейта : Переменный
Общий поток : 41,6 Кбит/сек
Максимальный общий битрейт : 195 Кбит/сек
Название фильма : Курс Cisco ICND1 - 1 день
Дата кодирования : UTC 2012-06-04 12:08:31.670
Примечание : Время начала: 10:25:54 ‎04.‎06.‎2012; Продолжительность: 05:31:04; Участники: Ruslan Karmanov, Андрей Затулко, Кочергин Илья Евгеньевич

Видео
Идентификатор : 1
Формат : VC-1
Профиль формата : AP@L3
Идентификатор кодека : WVC1
Идентификатор кодека/Подсказка : Microsoft
Описание кодека : Windows Media Video 9 Advanced Profile
Продолжительность : 5 ч. 31 м.
Вид битрейта : Переменный
Битрейт : 23,9 Кбит/сек
Ширина : 1024 пикселя
Высота : 576 пикселей
Соотношение сторон : 16:9
Частота кадров : 5,000 кадров/сек
Субдискретизация насыщенности : 4:2:0
Битовая глубина : 8 бит
Тип развёртки : Прогрессивная
Метод сжатия : С потерями
Бит/(Пиксели*Кадры) : 0.008
Размер потока : 56,7 Мбайт (58%)
Язык : English (US)

Аудио
Идентификатор : 2
Формат : WMA
Версия формата : Version 2
Идентификатор кодека : 161
Идентификатор кодека/Информация : Windows Media Audio
Описание кодека : Windows Media Audio 9.2 - 16 kbps, 16 kHz, mono 1-pass CBR
Продолжительность : 5 ч. 31 м.
Вид битрейта : Постоянный
Битрейт : 16,0 Кбит/сек
Каналы : 1 канал
Частота : 16,0 КГц
Битовая глубина : 16 бит
Размер потока : 37,9 Мбайт (38%)
Язык : Russian

Формат : Windows Media
Размер файла : 112 Мбайт
Продолжительность : 5 ч. 44 м.
Режим общего битрейта : Переменный
Общий поток : 45,6 Кбит/сек
Максимальный общий битрейт : 182 Кбит/сек
Название фильма : Курс Cisco ICND1 - день 2
Дата кодирования : UTC 2012-06-05 12:25:14.972
Примечание : Время начала: 09:19:35 ‎05.‎06.‎2012; Продолжительность: 05:44:42; Участники: Ruslan Karmanov, Николай Круглов, Alexander P. Baklanov

Видео
Идентификатор : 1
Формат : VC-1
Профиль формата : AP@L3
Идентификатор кодека : WVC1
Идентификатор кодека/Подсказка : Microsoft
Описание кодека : Windows Media Video 9 Advanced Profile
Продолжительность : 5 ч. 44 м.
Вид битрейта : Переменный
Битрейт : 27,9 Кбит/сек
Ширина : 1024 пикселя
Высота : 576 пикселей
Соотношение сторон : 16:9
Частота кадров : 5,000 кадров/сек
Субдискретизация насыщенности : 4:2:0
Битовая глубина : 8 бит
Тип развёртки : Прогрессивная
Метод сжатия : С потерями
Бит/(Пиксели*Кадры) : 0.009
Размер потока : 68,8 Мбайт (61%)
Язык : English (US)

Аудио
Идентификатор : 2
Формат : WMA
Версия формата : Version 2
Идентификатор кодека : 161
Идентификатор кодека/Информация : Windows Media Audio
Описание кодека : Windows Media Audio 9.2 - 16 kbps, 16 kHz, mono 1-pass CBR
Продолжительность : 5 ч. 44 м.
Вид битрейта : Постоянный
Битрейт : 16,0 Кбит/сек
Каналы : 1 канал
Частота : 16,0 КГц
Битовая глубина : 16 бит
Размер потока : 39,5 Мбайт (35%)
Язык : Russian

Формат : Windows Media
Размер файла : 190 Мбайт
Продолжительность : 5 ч. 53 м.
Режим общего битрейта : Переменный
Общий поток : 75,1 Кбит/сек
Максимальный общий битрейт : 372 Кбит/сек
Название фильма : Курс Cisco ICND1 - день 3
Дата кодирования : UTC 2012-06-06 12:23:39.800
Примечание : Время начала: 09:23:13 ‎06.‎06.‎2012; Продолжительность: 05:53:06; Участники: Ruslan Karmanov, Артем Лисенков, Roman Buchnev

Видео
Идентификатор : 1
Формат : VC-1
Профиль формата : AP@L4
Идентификатор кодека : WVC1
Идентификатор кодека/Подсказка : Microsoft
Описание кодека : Windows Media Video 9 Advanced Profile
Продолжительность : 5 ч. 53 м.
Вид битрейта : Переменный
Битрейт : 57,4 Кбит/сек
Ширина : 1600 пикселей
Высота : 900 пикселей
Соотношение сторон : 16:9
Частота кадров : 5,000 кадров/сек
Субдискретизация насыщенности : 4:2:0
Битовая глубина : 8 бит
Тип развёртки : Прогрессивная
Метод сжатия : С потерями
Бит/(Пиксели*Кадры) : 0.008
Размер потока : 145 Мбайт (76%)
Язык : English (US)

Аудио
Идентификатор : 2
Формат : WMA
Версия формата : Version 2
Идентификатор кодека : 161
Идентификатор кодека/Информация : Windows Media Audio
Описание кодека : Windows Media Audio 9.2 - 16 kbps, 16 kHz, mono 1-pass CBR
Продолжительность : 5 ч. 53 м.
Вид битрейта : Постоянный
Битрейт : 16,0 Кбит/сек
Каналы : 1 канал
Частота : 16,0 КГц
Битовая глубина : 16 бит
Размер потока : 40,4 Мбайт (21%)
Язык : Russian

Формат : Windows Media
Размер файла : 162 Мбайт
Продолжительность : 5 ч. 13 м.
Режим общего битрейта : Переменный
Общий поток : 72,2 Кбит/сек
Максимальный общий битрейт : 310 Кбит/сек
Название фильма : Курс Cisco ICND1 - день 4
Дата кодирования : UTC 2012-06-07 12:27:59.446
Примечание : Время начала: 09:57:18 ‎07.‎06.‎2012; Продолжительность: 05:13:10; Участники: Ruslan Karmanov, Alexander P. Baklanov, Roman Buchnev

Видео
Идентификатор : 1
Формат : VC-1
Профиль формата : AP@L4
Идентификатор кодека : WVC1
Идентификатор кодека/Подсказка : Microsoft
Описание кодека : Windows Media Video 9 Advanced Profile
Продолжительность : 5 ч. 13 м.
Вид битрейта : Переменный
Битрейт : 54,5 Кбит/сек
Ширина : 1440 пикселей
Высота : 900 пикселей
Соотношение сторон : 1,600
Частота кадров : 5,000 кадров/сек
Субдискретизация насыщенности : 4:2:0
Битовая глубина : 8 бит
Тип развёртки : Прогрессивная
Метод сжатия : С потерями
Бит/(Пиксели*Кадры) : 0.008
Размер потока : 122 Мбайт (75%)
Язык : English (US)

Аудио
Идентификатор : 2
Формат : WMA
Версия формата : Version 2
Идентификатор кодека : 161
Идентификатор кодека/Информация : Windows Media Audio
Описание кодека : Windows Media Audio 9.2 - 16 kbps, 16 kHz, mono 1-pass CBR
Продолжительность : 5 ч. 13 м.
Вид битрейта : Постоянный
Битрейт : 16,0 Кбит/сек
Каналы : 1 канал
Частота : 16,0 КГц
Битовая глубина : 16 бит
Размер потока : 35,8 Мбайт (22%)
Язык : Russian

Формат : Windows Media
Размер файла : 144 Мбайт
Продолжительность : 5 ч. 4 м.
Режим общего битрейта : Переменный
Общий поток : 66,0 Кбит/сек
Максимальный общий битрейт : 307 Кбит/сек
Название фильма : Курс Cisco ICND1 - день 5
Дата кодирования : UTC 2012-06-08 11:46:39.839
Примечание : Время начала: 09:21:30 ‎08.‎06.‎2012; Продолжительность: 05:04:31; Участники: Ruslan Karmanov, Roman Buchnev, Матяш Юрий

Видео
Идентификатор : 1
Формат : VC-1
Профиль формата : AP@L4
Идентификатор кодека : WVC1
Идентификатор кодека/Подсказка : Microsoft
Описание кодека : Windows Media Video 9 Advanced Profile
Продолжительность : 5 ч. 4 м.
Вид битрейта : Переменный
Битрейт : 48,3 Кбит/сек
Ширина : 1440 пикселей
Высота : 900 пикселей
Соотношение сторон : 1,600
Частота кадров : 5,000 кадров/сек
Субдискретизация насыщенности : 4:2:0
Битовая глубина : 8 бит
Тип развёртки : Прогрессивная
Метод сжатия : С потерями
Бит/(Пиксели*Кадры) : 0.007
Размер потока : 105 Мбайт (73%)
Язык : English (US)

Аудио
Идентификатор : 2
Формат : WMA
Версия формата : Version 2
Идентификатор кодека : 161
Идентификатор кодека/Информация : Windows Media Audio
Описание кодека : Windows Media Audio 9.2 - 16 kbps, 16 kHz, mono 1-pass CBR
Продолжительность : 5 ч. 4 м.
Вид битрейта : Постоянный
Битрейт : 16,0 Кбит/сек
Каналы : 1 канал
Частота : 16,0 КГц
Битовая глубина : 16 бит
Размер потока : 34,9 Мбайт (24%)
Язык : Russian
Файлы примеров: отсутствуют
Формат видео: WMV
Видео: VC-1 1920х1440-1024х576
Аудио: Windows Media 16 kbps, 16 kHz
Скриншоты














Доп. информация: Большое Спасибо за Ссылку FTP Vital_k

Постеры

Соцсети

 

Статистика

Автор: Nik
Добавлен: 22 сен 2013, 23:15
Размер: 706.05 МБ
Размер: 740 343 236 байт
Сидеров: 1
Личеров: 1
Скачали: 2
Здоровье: 100%
Раздающих: 50%
Скорость скачивания: 0 байт/сек
Скорость раздачи: 0 байт/сек
Последний сидер: 7 дней 19 часов 46 минут 53 секунды назад
Последний личер: 20 дней 20 часов 55 минут 2 секунды назад
Приватный: Нет (DHT включён)
Сеть и безопасность Скачать торрент
Скачать торрент
[ Размер 14.85 КБ / Просмотров 16 ]

Поделиться


  • Похожие торренты
    Ответы
    Просмотры
    Последнее сообщение

Вернуться в Сеть и безопасность