Видео


Сообщение

Видео [УЦ Advanced Training] Курс Cisco ROUTE – Маршрутизация в сетях Cisco. [2012, RUS]

Сообщение Nik » 22 сен 2013, 23:20

Курс Cisco ROUTE – Маршрутизация в сетях Cisco.

Год выпуска: 2012
Производитель: [УЦ Advanced Training]
Сайт производителя: http://www.atraining.ru
Автор: Ruslan Karmanov
Продолжительность: 18:42:57
Тип раздаваемого материала: Видеоурок
Язык: Русский
Описание: Курс Cisco ROUTE – Маршрутизация в сетях Cisco.

--------------------------------------------------------------------------------

Краткое описание программы курса ROUTE

Это ключевой курс по маршрутизации. Притом не только в сетях на оборудовании Cisco, но и практически во всех других. Курс адресно изучает специфику IP-маршрутизации и все основные протоколы динамической маршрутизации – OSPF, EIGRP, BGP, IS-IS, а также такие темы как управление маршрутной информацией и мультикастинг с использованием PIM / IGMP. Знания, получаемые на этом курсе, нужны абсолютно всем специалистам по сетевым технологиям.

Программа курса доработана нашим учебным центром в сторону увеличения глубины материала и является более эффективной для получения знаний и сдачи экзаменов, чем упрощённый стандартный сертифицированный курс ROUTE.
Содержание
Состав курса

Модуль №1 – Методологии проектирования маршрутизируемых сетей
•Обзор методологий Cisco по проектированию маршрутизируемых сетей
•IIN – Intelligent Information Network
•SONA – Service-Oriented Network Architecture
•CEA – Cisco Enterprise Architecture. Обзор обобщающей методологии.
•Иерархическая модель сети – ECNM. Enterprise campus: разделение на уровень доступа (access layer), уровень распределения (distribution layer), магистральный уровень ядра сети (core layer)
•Enterprise edge: пограничные устройства (edge devices), точки внешнего подключения (remote-access), доступ в Интернет, публикация ресурсов предприятия во внешние сети.
•Обзор протоколов динамической маршрутизации и их основных характеристик

Модуль №2 – Протокол динамической маршрутизации EIGRP
•Общие сведения о протоколе EIGRP и его преимущества
•Обнаружение соседей и создание EIGRP Neighbor table
•Алгоритм работы EIGRP (DUAL). Что такое advertised distance и feasible distance. Выбор лучшего маршрута – feasible successor и current successor.
•Задачи и логика формирования и обработки EIGRP Topology table
•Форматы используемых служебных пакетов – Hello, Update, Query, Reply, Ack
•Стартовый процесс обмена маршрутной информацией
•Метрика EIGRP и формула её подсчёта. Коэффициенты K1-K5. Совместимость формулы с IGRP (24 bit).
•Настройка EIGRP на маршрутизаторах Cisco – контект router eigrp. Просмотр данных show ip eigrp neighbors и show ip eigrp interface
•Управление суммаризацией маршрутов EIGRP – автоматическое и ручное. Работа функции auto-summary. Суммаризация с использованием ip summary-address eigrp.
•Балансировка нагрузки между несколькими маршрутами с неидентичной метрикой (EIGRP Unequal-Cost Load Balancing). Настройка диапазона метрики командой variance.
•Тонкости настройки EIGRP поверх WAN-каналов с ip bandwith-percent.
•Аутентификация маршрутизаторов EIGRP с использованием key-chain. Варианты plaintext и md5. Отладка типовых проблем с аутентификацией роутеров.
•Stuck-in-active – что это, когда возникает, и как лечится.
•Настройка маршрутизации и функций enterprise-уровня. Управление распространением маршрутов – eigrp stub. Функция graceful shutdown.
•Анализ конфигурации маршрутизатора, использующего EIGRP, и поиск типовых ошибок

Модуль №3 – Протокол динамической маршрутизации OSPFv2 / OSPFv3
•Общая логика работы протоколов IGP-маршрутизации класса link-state
•Структуры данных OSPF. LSDB.
•Алгоритм SPF. Современный вариант ISPF.
•Преимущества и особенности OSPF при структуризации сети на регионы (area). Нулевой регион – магистраль (backbone) и виртуальные каналы.
•Обычные маршрутизаторы, ABR (area border router) и ASBR (AS border router).
•Типы пакетов OSPF – LSA; Hello, Database Description, Link-state Request, Link-state Update, Link-state Acknowledgement – и их назначение.
•Формат пакета данных OSPF
•Механизм обнаружения соседних маршрутизаторов в разных видах сред – Point-to-point, Broadcast, NBMA. Выбор диспетчера – designated router. Приоритеты маршрутизаторов.
•Механизм обработки дублирующихся LSA. Нумерация LSA.
•Настройка OSPF на маршрутизаторах Cisco. Выбор router-id.
•Специфика работы OSPF в различных типах сред. Point-to-multipoint nonbroadcast, NBMA. Явное указание типа среды L2 командой ip ospf network на интерфейсе. Субинтерфейсы.
•Типы LSA. Router LSA, Network LSA, Summary LSA для внутренней маршрутизации и External Summary LSA типов E1 и E2.
•Подсчёт стоимости внешнего маршрута в зависимости от типа LSA. Редактирование “стоимости” интерфейса.
•Суммаризация маршрутов в OSPF на ABR и на ASBR. Управление распространением маршрута по умолчанию
•Настройка маршрутизации и вспомогательных функций (классификация регионов Stub Area / NSSA / Totally Stub Area, аутентификация)
•Анализ конфигурации маршрутизатора, использующего OSPF, и поиск типовых ошибок

Модуль №4 – Протокол динамической маршрутизации IS-IS
•Преимущества и особенности использования IS-IS для L1 и L2 маршрутизации
•Основная терминология IS-IS. CLNS. LSDB.
•Сходства и различия с OSPF
•Метрика IS-IS. Свои PDU для обмена информацией.
•L1- и L2-роутинг.
•ES-IS
•4 логических уровня работы IS-IS
•NSAP-адресация. Формат адреса NSAP.
•Поля адреса – IDP (AFI + IDI), DSP, NSEL
•Разбиение сети на регионы (Area). Схожесть и различие с OSPF.
•IS-IS PDU и их сравнение с OSPF’овскими. PSNP / CSNP и аналоги в LSA / LSU.
•Синхронизация LSDB и формирование связи между маршрутизаторами
•Настройка IS-IS на маршрутизаторах Cisco
•Суммаризация маршрутов в IS-IS

•Поиск ошибок в конфигурации устройства, использующего IS-IS

Модуль №5 – Управление маршрутизацией (Path Control)
•Настройка и анализ перераспределения маршрутов (route redistribution) между различными протоколами динамической маршрутизации IGP/EGP класса. Управление передачей default route
•Управление и использование фильтрации маршрутной информации (использование distribute-list и passive interfaces)
•Виды Path Control Tools и их назначения
•Использование offset-list для протоколов RIP и EIGRP
•IOS IP SLA: настройка probes, tracking objects и привязка к action
•Конфигурирование ip sla monitor
•Использование PBR (Policy-Based Routing) для входяшего трафика
•Использование PBR для QoS и Load Sharing
•Включение Fast-Switched PBR и взаимодействие с CEF
•Настройка и управление Cisco DHCP – сервером и прокси (ip helper)

Модуль №6 – Подключение к нескольким провайдерам Internet (ISP) и протокол BGP
•Обмен маршрутной информации с провайдером – circuit emulation, static routes, MPLS VPNs, BGP
•Типы подключения – single-homed, dual-homed, multihomed, dual-multihomed
•Протокол BGP его особенности и терминология
•Полная и частичная таблица маршрутизации Internet (Full / Partial view)
•Настройка BGP для конечной AS (не транзитной)
•BGP и multihoming. Вариант с получением default route от провайдеров
•Управление выбором маршрута в протоколе BGP (работа с атрибутами Local Preference, AS Path, Weight и Multi-exit discriminator (MED) )
•Основные настройки протокола BGP

Модуль №7 – Реализация многоадресных рассылок (multicast)
•Мультикастинг в IPv4 (поддержка multicast на сетевом и канальном уровне, протокол IGMP)
•Версии протокола IGMP. Функциональность IGMPv3, проблемы с мультикастом канального уровня
•Протокол CGMP и IGMP snooping
•Базовая терминология протоколов маршрутизации – distribution tree, shared tree, rendezvous point (RP)
•Различия между dense mode и sparse mode protocols
•Multicast flooding. Логика flood-and-prune. Протокол PIMv2 и его работа
•Несколько RP для одного дерева и Auto RP

•Настройка поддержки многоадресных рассылок (технологии PIM Sparse-Dense)

Модуль №8 – Использование IPv6
•Адресация в протоколе IPv6
•Взаимодействие протоколов IPv4 и IPv6
•Динамическая маршрутизация в IPv6 с ипользованием OSPFv3
отчет MediaInfo
общее
Полное имя : C:\Cisco-Route\Cisco ROUTE - day 1.wmv
Формат : Windows Media
Размер файла : 90,8 Мбайт
Продолжительность : 4 ч. 27 м.
Режим общего битрейта : Переменный
Общий поток : 47,5 Кбит/сек
Максимальный общий битрейт : 269 Кбит/сек
Название фильма : Cisco ROUTE - day 1
Дата кодирования : UTC 2012-06-16 12:47:42.884
Примечание : Время начала: 10:00:45 ?16.?06.?2012; Продолжительность: 04:27:21; Участники: Ruslan Karmanov, Alexander P. Baklanov, Белозёров Евгений

Видео
Идентификатор : 1
Формат : VC-1
Профиль формата : AP@L3
Идентификатор кодека : WVC1
Идентификатор кодека/Подсказка : Microsoft
Описание кодека : Windows Media Video 9 Advanced Profile
Продолжительность : 4 ч. 27 м.
Вид битрейта : Переменный
Битрейт : 29,8 Кбит/сек
Ширина : 1024 пикселя
Высота : 576 пикселей
Соотношение сторон : 16:9
Частота кадров : 5,000 кадров/сек
Субдискретизация насыщенности : 4:2:0
Битовая глубина : 8 бит
Тип развёртки : Прогрессивная
Метод сжатия : С потерями
Бит/(Пиксели*Кадры) : 0.010
Размер потока : 57,0 Мбайт (63%)
Язык : English (US)

Аудио
Идентификатор : 2
Формат : WMA
Версия формата : Version 2
Идентификатор кодека : 161
Идентификатор кодека/Информация : Windows Media Audio
Описание кодека : Windows Media Audio 9.2 - 16 kbps, 16 kHz, mono 1-pass CBR
Продолжительность : 4 ч. 27 м.
Вид битрейта : Постоянный
Битрейт : 16,0 Кбит/сек
Каналы : 1 канал
Частота : 16,0 КГц
Битовая глубина : 16 бит
Размер потока : 30,6 Мбайт (34%)
Язык : Russian

Общее
Полное имя : C:\Cisco-Route\Cisco ROUTE - day 2.wmv
Формат : Windows Media
Размер файла : 116 Мбайт
Продолжительность : 4 ч. 11 м.
Режим общего битрейта : Переменный
Общий поток : 64,4 Кбит/сек
Максимальный общий битрейт : 285 Кбит/сек
Название фильма : Cisco ROUTE - day 2
Дата кодирования : UTC 2012-06-23 12:04:46.980
Примечание : Время начала: 09:13:42 ?23.?06.?2012; Продолжительность: 04:11:33; Участники: Ruslan Karmanov, Валеев Артур, Буйный Андрей

Видео
Идентификатор : 1
Формат : VC-1
Профиль формата : AP@L3
Идентификатор кодека : WVC1
Идентификатор кодека/Подсказка : Microsoft
Описание кодека : Windows Media Video 9 Advanced Profile
Продолжительность : 4 ч. 11 м.
Вид битрейта : Переменный
Битрейт : 46,7 Кбит/сек
Ширина : 1280 пикселей
Высота : 720 пикселей
Соотношение сторон : 16:9
Частота кадров : 5,000 кадров/сек
Субдискретизация насыщенности : 4:2:0
Битовая глубина : 8 бит
Тип развёртки : Прогрессивная
Метод сжатия : С потерями
Бит/(Пиксели*Кадры) : 0.010
Размер потока : 84,1 Мбайт (73%)
Язык : English (US)

Аудио
Идентификатор : 2
Формат : WMA
Версия формата : Version 2
Идентификатор кодека : 161
Идентификатор кодека/Информация : Windows Media Audio
Описание кодека : Windows Media Audio 9.2 - 16 kbps, 16 kHz, mono 1-pass CBR
Продолжительность : 4 ч. 11 м.
Вид битрейта : Постоянный
Битрейт : 16,0 Кбит/сек
Каналы : 1 канал
Частота : 16,0 КГц
Битовая глубина : 16 бит
Размер потока : 28,8 Мбайт (25%)
Язык : Russian

Общее
Полное имя : C:\Cisco-Route\Cisco ROUTE - day 3.wmv
Формат : Windows Media
Размер файла : 212 Мбайт
Продолжительность : 5 ч. 36 м.
Режим общего битрейта : Переменный
Общий поток : 88,4 Кбит/сек
Максимальный общий битрейт : 376 Кбит/сек
Название фильма : Cisco ROUTE - day 3
Дата кодирования : UTC 2012-06-30 13:03:30.850
Примечание : Время начала: 09:38:06 ?30.?06.?2012; Продолжительность: 05:36:10; Участники: Ruslan Karmanov, Валеев Артур, Андрей Синицын

Видео
Идентификатор : 1
Формат : VC-1
Профиль формата : AP@L4
Идентификатор кодека : WVC1
Идентификатор кодека/Подсказка : Microsoft
Описание кодека : Windows Media Video 9 Advanced Profile
Продолжительность : 5 ч. 36 м.
Вид битрейта : Переменный
Битрейт : 70,7 Кбит/сек
Ширина : 1440 пикселей
Высота : 1080 пикселей
Соотношение сторон : 4:3
Частота кадров : 5,000 кадров/сек
Субдискретизация насыщенности : 4:2:0
Битовая глубина : 8 бит
Тип развёртки : Прогрессивная
Метод сжатия : С потерями
Бит/(Пиксели*Кадры) : 0.009
Размер потока : 170 Мбайт (80%)
Язык : English (US)

Аудио
Идентификатор : 2
Формат : WMA
Версия формата : Version 2
Идентификатор кодека : 161
Идентификатор кодека/Информация : Windows Media Audio
Описание кодека : Windows Media Audio 9.2 - 16 kbps, 16 kHz, mono 1-pass CBR
Продолжительность : 5 ч. 36 м.
Вид битрейта : Постоянный
Битрейт : 16,0 Кбит/сек
Каналы : 1 канал
Частота : 16,0 КГц
Битовая глубина : 16 бит
Размер потока : 38,5 Мбайт (18%)
Язык : Russian

Общее
Полное имя : C:\Cisco-Route\Cisco ROUTE - day 4.wmv
Формат : Windows Media
Размер файла : 150 Мбайт
Продолжительность : 4 ч. 27 м.
Режим общего битрейта : Переменный
Общий поток : 78,3 Кбит/сек
Максимальный общий битрейт : 631 Кбит/сек
Название фильма : Cisco ROUTE - day 4
Дата кодирования : UTC 2012-07-07 12:37:51.766
Примечание : Время начала: 10:14:15 ?07.?07.?2012; Продолжительность: 4:27:40; Участники: Ruslan Karmanov, Игорь Сидельников, Schastkova Victoria

Видео
Идентификатор : 1
Формат : VC-1
Профиль формата : AP@L4
Идентификатор кодека : WVC1
Идентификатор кодека/Подсказка : Microsoft
Описание кодека : Windows Media Video 9 Advanced Profile
Продолжительность : 4 ч. 27 м.
Вид битрейта : Переменный
Битрейт : 60,6 Кбит/сек
Ширина : 1280 пикселей
Высота : 960 пикселей
Соотношение сторон : 4:3
Частота кадров : 5,000 кадров/сек
Субдискретизация насыщенности : 4:2:0
Битовая глубина : 8 бит
Тип развёртки : Прогрессивная
Метод сжатия : С потерями
Бит/(Пиксели*Кадры) : 0.010
Размер потока : 116 Мбайт (77%)
Язык : English (US)

Аудио
Идентификатор : 2
Формат : WMA
Версия формата : Version 2
Идентификатор кодека : 161
Идентификатор кодека/Информация : Windows Media Audio
Описание кодека : Windows Media Audio 9.2 - 16 kbps, 16 kHz, mono 1-pass CBR
Продолжительность : 4 ч. 27 м.
Вид битрейта : Постоянный
Битрейт : 16,0 Кбит/сек
Каналы : 1 канал
Частота : 16,0 КГц
Битовая глубина : 16 бит
Размер потока : 30,6 Мбайт (20%)
Язык : Russian
Файлы примеров: отсутствуют
Формат видео: WMV
Видео: VC-1 1920х1440-1024х576-1280x720-1280x960
Аудио: Windows Media 16 kbps, 16 kHz
Скриншоты
(1)-День Курс Cisco ROUTE – Маршрутизация в сетях Cisco.






(2)-День Курс Cisco ROUTE – Маршрутизация в сетях Cisco.






(3)-День Курс Cisco ROUTE – Маршрутизация в сетях Cisco.






(4)-День Курс Cisco ROUTE – Маршрутизация в сетях Cisco.




Доп. информация: Большое Спасибо за Ссылку FTP Vital_k Нет 2х дней

Постеры

Соцсети

 

Статистика

Автор: Nik
Добавлен: 22 сен 2013, 23:20
Размер: 569.07 МБ
Размер: 596 716 342 байт
Сидеров: 924
Личеров: 10
Скачали: 17
Здоровье: 100%
Раздающих: 100%
Скорость скачивания: 0 байт/сек
Скорость раздачи: 0 байт/сек
Последний сидер: 8 часов 30 минут 42 секунды назад
Последний личер: 6 дней 2 часа 27 минут 44 секунды назад
Приватный: Нет (DHT включён)
Сеть и безопасность Скачать торрент
Скачать торрент
[ Размер 12.07 КБ / Просмотров 60 ]

Поделиться


  • Похожие торренты
    Ответы
    Просмотры
    Последнее сообщение

Вернуться в Сеть и безопасность