Видео


Сообщение

Видео The Essential Approach to Masking with Deke McClelland [2009 г.]

Сообщение Nik » 22 сен 2013, 23:31

Год выпуска: 2009
Язык: английский
Производитель: Deke McClelland
About:
Today, I take a brief respite from the many masking videos previously offered to offer--wait for it--yet another masking video!
At nearly 30 minutes, this is the longest single masking video I've ever done. Which is only fitting, really. I explore the core steps required to mask any image in Photoshop. Over the course of the video, I take a girl and mask her against a crazy background.
PSD файл: есть
Видео кодек: H.264
Параметры
Video
ID : 1
Format : AVC
Format/Info : Advanced Video Codec
Format profile : Main@L3.2
Format settings, CABAC : No
Format settings, ReFrames : 2 frames
Codec ID : avc1
Codec ID/Info : Advanced Video Coding
Duration : 29mn 6s
Bit rate mode : Variable
Bit rate : 182 Kbps
Width : 1 280 pixels
Height : 800 pixels
Display aspect ratio : 1.600
Frame rate mode : Constant
Frame rate : 7.500 fps
Resolution : 24 bits
Colorimetry : 4:2:0
Scan type : Progressive
Bits/(Pixel*Frame) : 0.024
Stream size : 37.8 MiB (71%)
Encoded date : UTC 2009-07-03 18:05:33
Tagged date : UTC 2009-07-03 18:07:00

Audio
ID : 2
Format : AAC
Format/Info : Advanced Audio Codec
Format version : Version 4
Format profile : LC
Format settings, SBR : No
Codec ID : 40
Duration : 29mn 6s
Bit rate mode : Constant
Bit rate : 72.0 Kbps
Nominal bit rate : 64.0 Kbps
Channel(s) : 1 channel
Channel positions : C
Sampling rate : 48.0 KHz
Resolution : 16 bits
Stream size : 14.9 MiB (28%)
Encoded date : UTC 2009-07-03 18:05:33
Tagged date : UTC 2009-07-03 18:07:00
Скриншоты
Если вам понравилась раздача, не стесняйтесь, жмите на [+] или на
Пожалуйста оставайтесь на раздаче как можно дольше

Постеры

Соцсети

 

Статистика

Автор: Nik
Добавлен: 22 сен 2013, 23:31
Размер: 72.06 МБ
Размер: 75 557 873 байт
Сидеров: 21
Личеров: 2
Скачали: 0
Здоровье: 100%
Раздающих: 100%
Скорость скачивания: 0 байт/сек
Скорость раздачи: 0 байт/сек
Последний сидер: 6 месяцев 17 дней 9 часов 49 минут 45 секунд назад
Последний личер: 10 месяцев 3 дня 16 часов 27 минут 41 секунду назад
Приватный: Нет (DHT включён)
Скачать торрент
Скачать торрент
[ Размер 11.86 КБ / Просмотров 2 ]

Поделиться


  • Похожие торренты
    Ответы
    Просмотры
    Последнее сообщение

Вернуться в Adobe Photoshop