Видео


Сообщение

Видео [The Gnomon Workshop] Photoshop - Mechanical Character Design [2013, ENG]

Сообщение Nik » 23 сен 2013, 00:01

Mechanical Character Design

Дата выпуска: 2013
Производитель: The Gnomon Workshop
Сайт производителя: www.TheGnomonWorkshop.com
Прямая ссылка на урок: The Gnomon Workshop - Mechanical Character Design
Автор: Joe Peterson
Продолжительность: 03:21:16
Тип раздаваемого материала: Видеоурок
Язык: Английский
Описание: Новый видеокурс от Gnomon Workshop. Создаем робота-мента-переростка. Автор курса много лет работает у Близзардов, так что курс строго показан к ознакомлению.
Описание (Eng)
In this tutorial, concept designer Joe Peterson breaks down the process of creating a mechanical character using only a story outline as the starting point. With the initial premise being a believable sci-fi future world, Joe sets out to design an appropriate mechanized unit for a high-tech SWAT team. He begins by discussing how this initial idea influences the entire design process, beginning with reference gathering and following all the way to the final detailing and rendering phases. Joe demonstrates how, once a level of technology is decided on, the appearance and features of the mechanics are much easier to design. Throughout the tutorial, he discusses the balance between using imagination over using real-world design elements and the importance of building up a visual design vocabulary to help make informed design choices, leading to appropriate mechanical designs. By walking through every step, from initial sketch, to refinement, detailing and final rendering, Joe shows his process of balancing imaginative features with real-world design to deliver a convincing, yet unique and creative mechanical design. He also discusses how to frame your mechanical design around the needs of the story or setting, ensuring that the context will help drive your creative decisions along the way. This tutorial offers various techniques and processes for creating and refining a mechanical design that is intended to not only look cool, but also communicate its function at a glance.

Содержание (Eng)
Chapters
01. Plan and Reference

02. Rough Sketch

03. Adding Limbs

04. Mechanical Details

05. Bringing the Sketch Together

06. Refining the Sketch

07. Adding Modules

08. Adding More Modules

09. Basic Colors and Shading

10. Beginning Details and Cleanup

11. Changing Colors and Additional Detail

12. Ammo Belt Detail

13. Additional Cleanup and Refinement

14. Proportion Check and Final Tweaks

15. Decals and Stickers

16. Finishing Touches

Файлы примеров: не предусмотрены
Формат видео: FLV
Видео: AVC / 1280x720 / 15 fps / 16:9 / 1500 Kbps
Аудио: AAC / 44,1 kHz / 93,8 Kbps
Скриншоты
Chapter 01 - Plan and Reference


Chapter 02 - Rough Sketch


Chapter 03 - Adding Limbs


Chapter 04 - Mechanical Details


Chapter 05 - Bringing the Sketch Together

Дополнительная информация:
Отчет MediaInfo (Рус)
Chapter 01 - Plan and Reference
ОбщееПолное имя : G:\CG\Photoshop\Gnomon - Mechanical Character Design (Joe Peterson) [2013]\01. Plan and Reference.flv
Формат : Flash Video
Размер файла : 76,8 Мбайт
Продолжительность : 6 м. 43 с.
Общий поток : 1597 Кбит/сек
Программа кодирования : Lavf54.63.100
Provided by : ptera

Видео

Формат : AVC
Формат/Информация : Advanced Video Codec
Профиль формата : High@L3.1
Параметр CABAC формата : Да
Параметр ReFrames формата : 4 кадра
Идентификатор кодека : 7
Продолжительность : 6 м. 43 с.
Битрейт : 1500 Кбит/сек
Ширина : 1280 пикселей
Высота : 720 пикселей
Соотношение сторон : 16:9
Режим частоты кадров : Постоянный
Частота кадров : 15,000 кадров/сек
Цветовое пространство : YUV
Субдискретизация насыщенности : 4:2:0
Битовая глубина : 8 бит
Тип развёртки : Прогрессивная
Бит/(Пиксели*Кадры) : 0.109
Размер потока : 72,1 Мбайт (94%)
Библиотека кодирования : x264 core 129 r2245 bc13772
Настройки программы : cabac=1 / ref=3 / deblock=1:0:0 / analyse=0x3:0x113 / me=hex / subme=7 / psy=1 / psy_rd=1.00:0.00 / mixed_ref=1 / me_range=16 / chroma_me=1 / trellis=1 / 8x8dct=1 / cqm=0 / deadzone=21,11 / fast_pskip=1 / chroma_qp_offset=-2 / threads=12 / lookahead_threads=2 / sliced_threads=0 / nr=0 / decimate=1 / interlaced=0 / bluray_compat=0 / constrained_intra=0 / bframes=3 / b_pyramid=2 / b_adapt=1 / b_bias=0 / direct=1 / weightb=1 / open_gop=0 / weightp=2 / keyint=250 / keyint_min=15 / scenecut=40 / intra_refresh=0 / rc_lookahead=40 / rc=abr / mbtree=1 / bitrate=1500 / ratetol=1.0 / qcomp=0.60 / qpmin=0 / qpmax=69 / qpstep=4 / ip_ratio=1.40 / aq=1:1.00

Аудио

Формат : AAC
Формат/Информация : Advanced Audio Codec
Профиль формата : LC
Идентификатор кодека : 10
Продолжительность : 6 м. 43 с.
Битрейт : 93,8 Кбит/сек
Каналы : 2 канала
Расположение каналов : Front: L R
Частота : 44,1 КГц
Метод сжатия : С потерями
Задержка видео : 120 мс.
Размер потока : 4,51 Мбайт (6%)
Chapter 02 - Rough Sketch
ОбщееПолное имя : G:\CG\Photoshop\Gnomon - Mechanical Character Design (Joe Peterson) [2013]\02. Rough Sketch.flv
Формат : Flash Video
Размер файла : 63,5 Мбайт
Продолжительность : 11 м.
Общий поток : 761 Кбит/сек
Программа кодирования : Lavf54.63.100
Provided by : ptera

Видео

Формат : AVC
Формат/Информация : Advanced Video Codec
Профиль формата : High@L3.1
Параметр CABAC формата : Да
Параметр ReFrames формата : 4 кадра
Идентификатор кодека : 7
Продолжительность : 11 м.
Битрейт : 1500 Кбит/сек
Ширина : 1280 пикселей
Высота : 720 пикселей
Соотношение сторон : 16:9
Режим частоты кадров : Постоянный
Частота кадров : 15,000 кадров/сек
Цветовое пространство : YUV
Субдискретизация насыщенности : 4:2:0
Битовая глубина : 8 бит
Тип развёртки : Прогрессивная
Бит/(Пиксели*Кадры) : 0.109
Размер потока : 125 Мбайт
Библиотека кодирования : x264 core 129 r2245 bc13772
Настройки программы : cabac=1 / ref=3 / deblock=1:0:0 / analyse=0x3:0x113 / me=hex / subme=7 / psy=1 / psy_rd=1.00:0.00 / mixed_ref=1 / me_range=16 / chroma_me=1 / trellis=1 / 8x8dct=1 / cqm=0 / deadzone=21,11 / fast_pskip=1 / chroma_qp_offset=-2 / threads=12 / lookahead_threads=2 / sliced_threads=0 / nr=0 / decimate=1 / interlaced=0 / bluray_compat=0 / constrained_intra=0 / bframes=3 / b_pyramid=2 / b_adapt=1 / b_bias=0 / direct=1 / weightb=1 / open_gop=0 / weightp=2 / keyint=250 / keyint_min=15 / scenecut=40 / intra_refresh=0 / rc_lookahead=40 / rc=abr / mbtree=1 / bitrate=1500 / ratetol=1.0 / qcomp=0.60 / qpmin=0 / qpmax=69 / qpstep=4 / ip_ratio=1.40 / aq=1:1.00

Аудио

Формат : AAC
Формат/Информация : Advanced Audio Codec
Профиль формата : LC
Идентификатор кодека : 10
Продолжительность : 11 м.
Битрейт : 93,8 Кбит/сек
Каналы : 2 канала
Расположение каналов : Front: L R
Частота : 44,1 КГц
Метод сжатия : С потерями
Задержка видео : 120 мс.
Размер потока : 7,82 Мбайт (12%)
Chapter 03 - Adding Limbs
ОбщееПолное имя : G:\CG\Photoshop\Gnomon - Mechanical Character Design (Joe Peterson) [2013]\03. Adding Limbs.flv
Формат : Flash Video
Размер файла : 85,7 Мбайт
Продолжительность : 10 м.
Общий поток : 1102 Кбит/сек
Программа кодирования : Lavf54.63.100
Provided by : ptera

Видео

Формат : AVC
Формат/Информация : Advanced Video Codec
Профиль формата : High@L3.1
Параметр CABAC формата : Да
Параметр ReFrames формата : 4 кадра
Идентификатор кодека : 7
Продолжительность : 10 м.
Битрейт : 1500 Кбит/сек
Ширина : 1280 пикселей
Высота : 720 пикселей
Соотношение сторон : 16:9
Режим частоты кадров : Постоянный
Частота кадров : 15,000 кадров/сек
Цветовое пространство : YUV
Субдискретизация насыщенности : 4:2:0
Битовая глубина : 8 бит
Тип развёртки : Прогрессивная
Бит/(Пиксели*Кадры) : 0.109
Размер потока : 117 Мбайт
Библиотека кодирования : x264 core 129 r2245 bc13772
Настройки программы : cabac=1 / ref=3 / deblock=1:0:0 / analyse=0x3:0x113 / me=hex / subme=7 / psy=1 / psy_rd=1.00:0.00 / mixed_ref=1 / me_range=16 / chroma_me=1 / trellis=1 / 8x8dct=1 / cqm=0 / deadzone=21,11 / fast_pskip=1 / chroma_qp_offset=-2 / threads=12 / lookahead_threads=2 / sliced_threads=0 / nr=0 / decimate=1 / interlaced=0 / bluray_compat=0 / constrained_intra=0 / bframes=3 / b_pyramid=2 / b_adapt=1 / b_bias=0 / direct=1 / weightb=1 / open_gop=0 / weightp=2 / keyint=250 / keyint_min=15 / scenecut=40 / intra_refresh=0 / rc_lookahead=40 / rc=abr / mbtree=1 / bitrate=1500 / ratetol=1.0 / qcomp=0.60 / qpmin=0 / qpmax=69 / qpstep=4 / ip_ratio=1.40 / aq=1:1.00

Аудио

Формат : AAC
Формат/Информация : Advanced Audio Codec
Профиль формата : LC
Идентификатор кодека : 10
Продолжительность : 10 м.
Битрейт : 93,8 Кбит/сек
Каналы : 2 канала
Расположение каналов : Front: L R
Частота : 44,1 КГц
Метод сжатия : С потерями
Задержка видео : 120 мс.
Размер потока : 7,29 Мбайт (9%)
Chapter 04 - Mechanical Details
ОбщееПолное имя : G:\CG\Photoshop\Gnomon - Mechanical Character Design (Joe Peterson) [2013]\04. Mechanical Details.flv
Формат : Flash Video
Размер файла : 187 Мбайт
Продолжительность : 15 м.
Общий поток : 1709 Кбит/сек
Программа кодирования : Lavf54.63.100
Provided by : ptera

Видео

Формат : AVC
Формат/Информация : Advanced Video Codec
Профиль формата : High@L3.1
Параметр CABAC формата : Да
Параметр ReFrames формата : 4 кадра
Идентификатор кодека : 7
Продолжительность : 15 м.
Битрейт : 1500 Кбит/сек
Ширина : 1280 пикселей
Высота : 720 пикселей
Соотношение сторон : 16:9
Режим частоты кадров : Постоянный
Частота кадров : 15,000 кадров/сек
Цветовое пространство : YUV
Субдискретизация насыщенности : 4:2:0
Битовая глубина : 8 бит
Тип развёртки : Прогрессивная
Бит/(Пиксели*Кадры) : 0.109
Размер потока : 164 Мбайт (88%)
Библиотека кодирования : x264 core 129 r2245 bc13772
Настройки программы : cabac=1 / ref=3 / deblock=1:0:0 / analyse=0x3:0x113 / me=hex / subme=7 / psy=1 / psy_rd=1.00:0.00 / mixed_ref=1 / me_range=16 / chroma_me=1 / trellis=1 / 8x8dct=1 / cqm=0 / deadzone=21,11 / fast_pskip=1 / chroma_qp_offset=-2 / threads=12 / lookahead_threads=2 / sliced_threads=0 / nr=0 / decimate=1 / interlaced=0 / bluray_compat=0 / constrained_intra=0 / bframes=3 / b_pyramid=2 / b_adapt=1 / b_bias=0 / direct=1 / weightb=1 / open_gop=0 / weightp=2 / keyint=250 / keyint_min=15 / scenecut=40 / intra_refresh=0 / rc_lookahead=40 / rc=abr / mbtree=1 / bitrate=1500 / ratetol=1.0 / qcomp=0.60 / qpmin=0 / qpmax=69 / qpstep=4 / ip_ratio=1.40 / aq=1:1.00

Аудио

Формат : AAC
Формат/Информация : Advanced Audio Codec
Профиль формата : LC
Идентификатор кодека : 10
Продолжительность : 15 м.
Битрейт : 93,8 Кбит/сек
Каналы : 2 канала
Расположение каналов : Front: L R
Частота : 44,1 КГц
Метод сжатия : С потерями
Задержка видео : 120 мс.
Размер потока : 10,3 Мбайт (5%)
Chapter 05 - Bringing the Sketch Together
ОбщееПолное имя : G:\CG\Photoshop\Gnomon - Mechanical Character Design (Joe Peterson) [2013]\05. Bringing the Sketch Together.flv
Формат : Flash Video
Размер файла : 114 Мбайт
Продолжительность : 10 м.
Общий поток : 1571 Кбит/сек
Программа кодирования : Lavf54.63.100
Provided by : ptera

Видео

Формат : AVC
Формат/Информация : Advanced Video Codec
Профиль формата : High@L3.1
Параметр CABAC формата : Да
Параметр ReFrames формата : 4 кадра
Идентификатор кодека : 7
Продолжительность : 10 м.
Битрейт : 1500 Кбит/сек
Ширина : 1280 пикселей
Высота : 720 пикселей
Соотношение сторон : 16:9
Режим частоты кадров : Постоянный
Частота кадров : 15,000 кадров/сек
Цветовое пространство : YUV
Субдискретизация насыщенности : 4:2:0
Битовая глубина : 8 бит
Тип развёртки : Прогрессивная
Бит/(Пиксели*Кадры) : 0.109
Размер потока : 108 Мбайт (95%)
Библиотека кодирования : x264 core 129 r2245 bc13772
Настройки программы : cabac=1 / ref=3 / deblock=1:0:0 / analyse=0x3:0x113 / me=hex / subme=7 / psy=1 / psy_rd=1.00:0.00 / mixed_ref=1 / me_range=16 / chroma_me=1 / trellis=1 / 8x8dct=1 / cqm=0 / deadzone=21,11 / fast_pskip=1 / chroma_qp_offset=-2 / threads=12 / lookahead_threads=2 / sliced_threads=0 / nr=0 / decimate=1 / interlaced=0 / bluray_compat=0 / constrained_intra=0 / bframes=3 / b_pyramid=2 / b_adapt=1 / b_bias=0 / direct=1 / weightb=1 / open_gop=0 / weightp=2 / keyint=250 / keyint_min=15 / scenecut=40 / intra_refresh=0 / rc_lookahead=40 / rc=abr / mbtree=1 / bitrate=1500 / ratetol=1.0 / qcomp=0.60 / qpmin=0 / qpmax=69 / qpstep=4 / ip_ratio=1.40 / aq=1:1.00

Аудио

Формат : AAC
Формат/Информация : Advanced Audio Codec
Профиль формата : LC
Идентификатор кодека : 10
Продолжительность : 10 м.
Битрейт : 93,8 Кбит/сек
Каналы : 2 канала
Расположение каналов : Front: L R
Частота : 44,1 КГц
Метод сжатия : С потерями
Задержка видео : 120 мс.
Размер потока : 6,78 Мбайт (6%)

Постеры

Соцсети

 

Статистика

Автор: Nik
Добавлен: 23 сен 2013, 00:01
Размер: 2.08 ГБ
Размер: 2 238 385 922 байт
Сидеров: 14
Личеров: 3
Скачали: 1
Здоровье: 100%
Раздающих: 100%
Скорость скачивания: 0 байт/сек
Скорость раздачи: 0 байт/сек
Последний сидер: 2 дня 17 часов 40 минут 17 секунд назад
Последний личер: 2 дня 17 часов 40 минут 17 секунд назад
Приватный: Нет (DHT включён)
Скачать торрент
Скачать торрент
[ Размер 11.89 КБ / Просмотров 7 ]

Поделиться


Re: [The Gnomon Workshop] Photoshop - Mechanical Character Design [2013, ENG]

Сообщение Astrulises » 18 апр 2017, 23:06

:drinks: :drinks: :drinks: :drinks: :drinks:
Аватара пользователя
Astrulises
 


  • Похожие торренты
    Ответы
    Просмотры
    Последнее сообщение

Вернуться в Adobe Photoshop