Видео


Сообщение

Видео Андрей Масалович | Взломать за 60 секунд [2013] PCRec

Сообщение Таточка » 23 окт 2013, 22:44

Год выпуска: 2013
Жанр: Обучающий, Компьютерная безопасность
Продолжительность: 01:37:00
Качество видео: PCRec
Видеокодек: MPEG4 (AVC)
Битрейт видео: ~926 Kbps
Размер кадра: 1280х720
Аудиокодек: AAC
Битрейт аудио: 192 Kbps, 2 ch

Описание:
Андрей Масалович – кандидат физико-математических наук, президент Консорциума Инфорус, руководитель ряда успешных проектов по аналитическому оснащению банков, ФПГ, крупных торговых сетей, государственных организаций. В прошлом – подполковник ФАПСИ, лауреат стипендии РАН "Выдающийся ученый России".
Автор многочисленных публикаций и ведущий семинаров по проблемам поиска и анализа данных в ряде университетов России и США (АНХ, МГУ, МАИ, Harvard University, Stanford University, Georgia Tech University, Texas A&M). Эксперт РФФИ, INTAS, МТЦ ООН, АТЭС.
Какие задачи решает интернет-разведка
Наиболее типичные изъяны в вашей безопасности, которые будет использовать нападающий, чтобы получить доступ к конфиденциальной информации
Самые эффективные приемы обхода защиты
Как обеспечить собственную защищенность, не используя дорогостоящие и затратные методы
Как организовать мониторинг уязвимостей, утечек и угроз бизнесу и репутации

Почему это важно?

Информация, особенно составляющая коммерческую тайну, является одним из главных, дорогих и наиболее охраняемых ресурсов большинства организаций. Однако по статистике лишь 2% компаний могут обеспечить адекватную защиту своей конфиденциальной информации.

Практика интернет-разведки показывает, что даже 2% защищенных компаний – это слишком оптимистичная цифра. Арсенал опытного "охотника за информацией" насчитывает более 700 приемов, позволяющих добывать ценную информацию даже из защищенных разделов и внутренних хранилищ. Методы интернет-разведки во многих случаях позволяют добраться до приватной информации за считанные минуты.

Как обеспечить адекватную защиту своих данных? И как ее поддерживать без больших затрат на сложную и дорогостоящую инфраструктуру ИБ? Об этом и пойдет речь на вебинаре.

В программе вебинара:

Общие принципы и методология интернет-разведки
10 приемов, позволяющих получить доступ к вашим данным за 1 минуту без взлома защиты
Обзор приемов поиска в "невидимом Интернете"
Специализированные поисковые средства для "прогулок по невидимому Интернету"
Поисковая технология Avalanche
General
Format : MPEG-4
Format profile : Base Media
Codec ID : isom
File size : 787 MiB
Duration : 1h 37mn
Overall bit rate : 1 125 Kbps
Tagged date : UTC 2013-10-10 06:11:09
Writing application : Lavf53.24.2

Video
ID : 1
Format : AVC
Format/Info : Advanced Video Codec
Format profile :
Format settings, CABAC : Yes
Format settings, ReFrames : 1 frame
Codec ID : avc1
Codec ID/Info : Advanced Video Coding
Duration : 1h 37mn
Bit rate mode : Variable
Bit rate : 926 Kbps
Width : 1 280 pixels
Height : 720 pixels
Display aspect ratio : 16:9
Frame rate mode : Constant
Frame rate : 30.000 fps
Color space : YUV
Chroma subsampling : 4:2:0
Bit depth : 8 bits
Scan type : Progressive
Bits/(Pixel*Frame) : 0.033
Stream size : 648 MiB (82%)

Audio
ID : 2
Format : AAC
Format/Info : Advanced Audio Codec
Format profile : LC
Codec ID : 40
Duration : 1h 37mn
Bit rate mode : Variable
Bit rate : 192 Kbps
Maximum bit rate : 200 Kbps
Channel(s) : 2 channels
Channel positions : Front: L R
Sampling rate : 44.1 KHz
Compression mode : Lossy
Stream size : 134 MiB (17%)
Скриншоты:



Время раздачи: 24/7 (круглосуточно) - до 5 скачавших, далее по возможности.

Постеры

Соцсети

 

Статистика

Автор: Таточка
Добавлен: 23 окт 2013, 22:44
Размер: 787.23 МБ
Размер: 825 470 141 байт
Сидеров: 159
Личеров: 13
Скачали: 2
Здоровье: 100%
Раздающих: 100%
Скорость скачивания: 0 байт/сек
Скорость раздачи: 0 байт/сек
Последний сидер: 1 день 18 часов 46 минут 2 секунды назад
Последний личер: 1 день 18 часов 46 минут 2 секунды назад
Приватный: Нет (DHT включён)
Сеть и безопасность Скачать торрент
Скачать торрент
[ Размер 16.17 КБ / Просмотров 19 ]

Поделиться


  • Похожие торренты
    Ответы
    Просмотры
    Последнее сообщение

Вернуться в Сеть и безопасность