Видео


Сообщение

Видео С.Боронин - Центр «Специалист» / Д.Городовой | Угроза безопасности или порядок действий хакера Компьютер без антивируса (2013) [PCRec]

Сообщение Таточка » 23 окт 2013, 22:46

Год выпуска: 2013
Жанр: Обучающий, Компьютерная безопасность
Продолжительность: 02:44:52
Качество видео: PCRec
Видеокодек: MPEG4 (AVC)
Битрейт видео: ~279 - 939 kbps
Размер кадра: 1280x688/1060x720/960x720
Аудиокодек: AAC
Битрейт аудио: ~96 - 192 kbps, 2 ch

Описание:
Ведущий преподаватель Центра «Специалист» Сергей Боронин – уникальный по знаниям и опыту преподаватель-эксперт по UNIX-технологиям, сертифицированный этичный хакер. рассказывает о порядке действий хакера и выявлении угроз безопасности. Вы узнаете последовательность действий, выполняемых хакером для получения доступа к Вашим данным. Вы также получите представление о том, что и как необходимо делать, чтобы избежать назойливого внимания компьютерных злоумышленников. Хотите знать больше и надежно защитить Вашу систему от внешних вторжений? Воспользуйтесь возможностью получить знания из рук опытнейшего профессионала, Сергей Боронин умеет донести до каждого слушателя и концептуальное понимание изучаемого предмета, и эффективные приемы практической работы

Воспользуйтесь возможностью получить знания из рук опытнейшего профессионала! Бесплатный вебинар проводит Сергей Сергеевич Боронин – уникальный по знаниям и опыту преподаватель-эксперт по UNIX-технологиям, сертифицированный этичный хакер. Сергей Боронин умеет донести до каждого слушателя и концептуальное понимание изучаемого предмета, и эффективные приемы практической работы. Слушатели с благодарностью отмечают его высочайший профессионализм и как практика, и как преподавателя.
Угроза безопасности или порядок действий хакера:

1. Алгоритм действий хакера (шаги выполняются интеграционно, пока не будет достигнута цель):
• Сбор данных о жертве
• Применение социальной инженерии для получения доступа
• Инвентаризация сервисов
• Проверка (если актуально) на наличие Web-уязвимостей (SQL-инъекции,XSS и т.п.)
• Сканирование выявленных сервисов на предмет уязвимостей
• Эксплуатация найденных уязвимостей
• Повышение привилегий
• Установка backdoor'a
• Заметание следов

2. Разбор полетов и выявление угроз безопасности:
• Анатомия уязвимостей
• Развенчание мифов
• Классификация уязвимостей по способам их эксплуатации
• Защитные меры:
• Профилактика эксплуатации уязвимостей
• Аудит и мониторинг
• Технологии сдерживания
• Как грамотно построить защиту?

Компьютер без антивируса

• Компьютер без антивируса-части 1-4
• Заблокировали Одноклассники и ВКонтакте, Что делать - Часть 1
• Как Найти Hosts, Если Заблокировали Одноклассники, ВКонтакте, Яндекс, Мейл.Ру и Facebook - Часть 2
• Удаляем Вирус блокирующий соц. сети - Часть 1
• Удаляем Вирус блокирующий соц. сети в Windows 8 - Часть 2
• Восстановление файла Hosts с помощью утилиты - Fixit
• Как удалить вирус-блокировщик Windows (баннер, вымогатель)
• Лечение вируса вымогателя WinLock
• Удаление вируса Trol
• Удаление вируса из Skype
General
Complete name : 1. Угроза безопасности или порядок действий хакера.mp4
Format : MPEG-4
Format profile : Base Media / Version 2
Codec ID : mp42
File size : 574 MiB
Duration : 1h 10mn
Overall bit rate : 1 133 Kbps
Encoded date : UTC 2013-08-11 06:34:06
Tagged date : UTC 2013-08-11 06:34:06

Video
ID : 1
Format : AVC
Format/Info : Advanced Video Codec
Format profile :
Format settings, CABAC : Yes
Format settings, ReFrames : 1 frame
Codec ID : avc1
Codec ID/Info : Advanced Video Coding
Duration : 1h 10mn
Bit rate mode : Variable
Bit rate : 939 Kbps
Maximum bit rate : 5 127 Kbps
Width : 960 pixels
Height : 720 pixels
Display aspect ratio : 4:3
Frame rate mode : Constant
Frame rate : 29.970 fps
Color space : YUV
Chroma subsampling : 4:2:0
Bit depth : 8 bits
Scan type : Progressive
Bits/(Pixel*Frame) : 0.045
Stream size : 476 MiB (83%)
Tagged date : UTC 2013-08-11 06:37:37

Audio
ID : 2
Format : AAC
Format/Info : Advanced Audio Codec
Format profile : LC
Codec ID : 40
Duration : 1h 10mn
Bit rate mode : Variable
Bit rate : 192 Kbps
Maximum bit rate : 202 Kbps
Channel(s) : 2 channels
Channel positions : Front: L R
Sampling rate : 44.1 KHz
Compression mode : Lossy
Stream size : 97.3 MiB (17%)
Title : IsoMedia File Produced by Google, 5-11-2011
Encoded date : UTC 2013-08-11 06:36:19
Tagged date : UTC 2013-08-11 06:37:37
Скриншоты:



Время раздачи: 24/7 (круглосуточно) - до 5 скачавших, далее по возможности.

Постеры

Соцсети

 

Вернуться в Сеть и безопасность



Кто сейчас на конференции

Сейчас эту тему просматривают: CCBot и гости: 0