Видео


Сообщение

Видео Any Card to Any Spectators Wallet by Jeff Kaylor and Michael Ammar [2012, Фокусы, DVDRip, ENG] (Видеоурок)

Сообщение Stepan » 30 окт 2013, 20:14

Any Card to Any Spectators Wallet by Jeff Kaylor and Michael Ammar

Страна: США
Тематика: Фокусы
Тип раздаваемого материала: Видеоурок
Продолжительность: 00:15:22
Год выпуска: 2012

Язык: Английский
Перевод: Не требуется

Язык субтитров: Отсутствует
Описание: Карта, подписанная зрителем, появляется абсолютно из любого бумажника любого зрителя! Да, это именно так! Это именно настолько же невероятно насколько и звучит!!!
Никакого пальмирования!
Любая карта совершенно свободно выбирается и подписывается!
Любая колода!
Никаких магнитов!
Никаких трюковых карт!
Никаких тянущих устройств и никаких специальных бумажников!
Все можно сразу же повторить с любой другой картой!

Качество: DVDRip
Формат: AVI
Видео кодек: XviD
Аудио кодек: MP3
Видео: XviD, 768x576 (4:3), 25 fps, 1500 kbps
Аудио: MP3, 44.1 kHz, 2 ch, 128 kbps
Скриншоты
MediaInfo
Код:
Код: Выделить всё
Общее
Полное имя                               : Фильм.avi
Формат                                   : AVI
Формат/Информация                        : Audio Video Interleave
Размер файла                             : 180 Мбайт
Продолжительность                        : 15 м.
Общий поток                              : 1638 Кбит/сек
Программа кодирования                    : MEncoder SVN-r30881(20100311-gcc4.3.3)
Библиотека кодирования                   : MPlayer

Видео
Идентификатор                            : 0
Формат                                   : MPEG-4 Visual
Профиль формата                          : Advanced Simple@L5
Параметр BVOP формата                    : 2
Параметр QPel формата                    : Нет
Параметр GMC формата                     : Без точки перехода
Параметр матрицы формата                 : Default (H.263)
Идентификатор кодека                     : XVID
Идентификатор кодека/Подсказка           : XviD
Продолжительность                        : 15 м.
Битрейт                                  : 1497 Кбит/сек
Ширина                                   : 768 пикселей
Высота                                   : 576 пикселей
Соотношение сторон                       : 4:3
Частота кадров                           : 25,000 кадров/сек
Цветовое пространство                    : YUV
Субдискретизация насыщенности            : 4:2:0
Битовая глубина                          : 8 бит
Тип развёртки                            : Прогрессивная
Метод сжатия                             : С потерями
Бит/(Пиксели*Кадры)                      : 0.135
Размер потока                            : 165 Мбайт (91%)
Библиотека кодирования                   : XviD 1.2.1 (UTC 2008-12-04)

Аудио
Идентификатор                            : 1
Формат                                   : MPEG Audio
Версия формата                           : Version 1
Профиль формата                          : Layer 3
Режим                                    : Joint stereo
Расширение режима                        : MS Stereo
Идентификатор кодека                     : 55
Идентификатор кодека/Подсказка           : MP3
Продолжительность                        : 15 м.
Вид битрейта                             : Постоянный
Битрейт                                  : 128 Кбит/сек
Каналы                                   : 2 канала
Частота                                  : 44,1 КГц
Метод сжатия                             : С потерями
Задержка видео                           : 40 мс.
Размер потока                            : 14,1 Мбайт (8%)
Выравнивание                             : Соединение по промежуткам
Продолжительность промежутка             : 26  мс. (0,65 видеокадр)
Время предзагрузки промежутка            : 522  мс.
Библиотека кодирования                   : LAME3.98

Постеры

Соцсети

 

Статистика

Автор: Stepan
Добавлен: 30 окт 2013, 20:14
Размер: 180.12 МБ
Размер: 188 870 190 байт
Сидеров: 20
Личеров: 3
Скачали: 2
Здоровье: 100%
Раздающих: 100%
Скорость скачивания: 0 байт/сек
Скорость раздачи: 0 байт/сек
Последний сидер: 14 дней 6 часов 26 минут 5 секунд назад
Последний личер: 14 дней 6 часов 26 минут 5 секунд назад
Приватный: Нет (DHT включён)
Скачать торрент
Скачать торрент
[ Размер 14.55 КБ / Просмотров 13 ]

Поделиться


Вернуться в Фокусы и трюки