Видео


Сообщение

Видео World's Greatest Magic - Dinner Table Magic [Фокусы с едой, фокусы со столовыми приборами,tricks with food, tricks with Kitchen utensils, DVDRip, ENG] (Видеоурок)

Сообщение Stepan » 30 окт 2013, 20:15

World's Greatest Magic - Dinner Table Magic

Страна: USA
Тематика: Фокусы с едой, фокусы со столовыми приборами
Тип раздаваемого материала: Видеоурок
Продолжительность: 01:29:22
Язык: Английский
Перевод: Отсутствует

Превью и описание на английском: http://www.youtube.com/watch?v=MY7J0bkJXTA
http://www.penguinmagic.com/p/1481

Описание:
Фокусы с едой и столовыми приборами, для ресторанов, кафе, баров, посиделок, праздников итп

Качество: DVDRip
Формат: AVI
Видео кодек: XviD
Аудио кодек: MP3
Видео: XviD, 496*368, 4:3, 383 kbps, 23.976
Аудио: MP3, 128 kbps, 22.07 kHz, 2 ch
MediaInfo
Format : AVI
Format/Info : Audio Video Interleave
File size : 334 MiB
Duration : 2h 58mn
Overall bit rate : 262 Kbps
Writing application : MEncoder SVN-r30881(20100311-gcc4.3.3)
Writing library : MPlayer

Video
ID : 0
Format : MPEG-4 Visual
Format profile : Advanced Simple@L5
Format settings, BVOP : Yes
Format settings, QPel : No
Format settings, GMC : No warppoints
Format settings, Matrix : Default (H.263)
Codec ID : XVID
Codec ID/Hint : XviD
Duration : 1h 29mn
Bit rate : 383 Kbps
Width : 496 pixels
Height : 368 pixels
Display aspect ratio : 4:3
Frame rate : 23.976 fps
Resolution : 8 bits
Colorimetry : 4:2:0
Scan type : Progressive
Bits/(Pixel*Frame) : 0.088
Stream size : 245 MiB (73%)
Writing library : XviD 1.2.1 (UTC 2008-12-04)

Audio
ID : 1
Format : MPEG Audio
Format version : Version 2
Format profile : Layer 3
Mode : Joint stereo
Format_Settings_ModeExtension : MS Stereo
Codec ID : 55
Codec ID/Hint : MP3
Duration : 2h 58mn
Bit rate mode : Constant
Bit rate : 128 Kbps
Channel(s) : 2 channels
Sampling rate : 22.05 KHz
Video delay : 42ms
Stream size : 81.8 MiB (24%)
Alignment : Aligned on interleaves
Interleave, duration : 26 ms (0.63 video frame)
Interleave, preload duration : 522 ms
Writing library : LAME3.98
Скриншоты

Постеры

Соцсети

 

Статистика

Автор: Stepan
Добавлен: 30 окт 2013, 20:15
Размер: 334.47 МБ
Размер: 350 712 670 байт
Сидеров: 33
Личеров: 5
Скачали: 3
Здоровье: 100%
Раздающих: 100%
Скорость скачивания: 0 байт/сек
Скорость раздачи: 0 байт/сек
Последний сидер: 14 дней 8 часов 43 минуты 29 секунд назад
Последний личер: 14 дней 8 часов 43 минуты 29 секунд назад
Приватный: Нет (DHT включён)
Скачать торрент
Скачать торрент
[ Размер 13.65 КБ / Просмотров 26 ]

Поделиться


Вернуться в Фокусы и трюки