Видео


Сообщение

Видео All In by Jack Carpenter [2013, Карточная механика, DVDRip, ENG] (Видеоурок)

Сообщение Stepan » 30 окт 2013, 20:15

All In by Jack Carpenter

Страна: США
Тематика: Карточная механика
Тип раздаваемого материала: Видеоурок
Продолжительность: 02:50:00
Год выпуска: 2013

Язык: Английский
Перевод: Отсутствует

Описание: Семинар посвящён гамблерским демонстрациям, но в ходе их изучения многие смогут подчерпнуть и кое-какие техники.

Доп. информация: Превью, отзывы, описание на английском

Качество: DVDRip
Формат: MP4
Видео кодек: XviD
Аудио кодек: AAC
Видео: XviD, 720x480(16:9), 949kbps, 29,970fps
Аудио: AAC, 128kbps, 44,1kHz, 2ch
Скриншоты


MediaInfo
Код:
Код: Выделить всё
Формат                                   : MPEG-4
Профиль формата                          : Base Media
Идентификатор кодека                     : isom
Размер файла                             : 663 Мбайт
Продолжительность                        : 1 ч. 25 м.
Режим общего битрейта                    : Переменный
Общий поток                              : 1081 Кбит/сек
Программа кодирования                    : Lavf52.104.0

Видео
Идентификатор                            : 1
Формат                                   : MPEG-4 Visual
Профиль формата                          : Simple@L3
Параметр BVOP формата                    : Нет
Параметр QPel формата                    : Нет
Параметр GMC формата                     : Без точки перехода
Параметр матрицы формата                 : Default (H.263)
Идентификатор кодека                     : 20
Продолжительность                        : 1 ч. 25 м.
Битрейт                                  : 949 Кбит/сек
Ширина                                   : 720 пикселей
Высота                                   : 480 пикселей
Соотношение сторон                       : 16:9
Соотношение сторон в оригинале           : 16:9
Режим частоты кадров                     : Переменный
Частота кадров                           : 29,970 кадров/сек
Минимальная частота кадров               : 14,986 кадров/сек
Максимальная частота кадров              : 29,971 кадров/сек
Стандарт вещания                         : NTSC
Цветовое пространство                    : YUV
Субдискретизация насыщенности            : 4:2:0
Битовая глубина                          : 8 бит
Тип развёртки                            : Прогрессивная
Метод сжатия                             : С потерями
Бит/(Пиксели*Кадры)                      : 0.092
Размер потока                            : 582 Мбайт (88%)
Библиотека кодирования                   : XviD 1.2.1 (UTC 2008-12-04)

Аудио
Идентификатор                            : 2
Формат                                   : AAC
Формат/Информация                        : Advanced Audio Codec
Профиль формата                          : LC
Идентификатор кодека                     : 40
Продолжительность                        : 1 ч. 25 м.
Вид битрейта                             : Переменный
Битрейт                                  : 128 Кбит/сек
Каналы                                   : 2 канала
Расположение каналов                     : Front: L R
Частота                                  : 44,1 КГц
Метод сжатия                             : С потерями
Размер потока                            : 78,5 Мбайт (12%)

Постеры

Соцсети

 

Статистика

Автор: Stepan
Добавлен: 30 окт 2013, 20:15
Размер: 1.28 ГБ
Размер: 1 378 437 695 байт
Сидеров: 10
Личеров: 14
Скачали: 1
Здоровье: 71%
Раздающих: 100%
Скорость скачивания: 0 байт/сек
Скорость раздачи: 0 байт/сек
Последний сидер: 15 дней 16 часов 5 минут 24 секунды назад
Последний личер: 15 дней 16 часов 5 минут 24 секунды назад
Приватный: Нет (DHT включён)
Скачать торрент
Скачать торрент
[ Размер 13.38 КБ / Просмотров 18 ]

Поделиться


Вернуться в Фокусы и трюки