Видео


Сообщение

Видео Spider Pen Pro by Yigal Mesika [2012, Левитация, DVDRip, ENG] (Видеоурок)

Сообщение Stepan » 30 окт 2013, 20:16

Spider Pen Pro by Yigal Mesika

Страна: США
Тематика: Левитация
Тип раздаваемого материала: Видеоурок
Продолжительность: 00:44:12
Год выпуска: 2012

Язык: Английский
Перевод: Отсутствует

Описание: В 2004 году оригинальная ручка Spider Pen стала классикой среди многообразия различных магических устройств из мира фокусников. Благодаря всемирной популярности данного устройства, Yigal Mesika в очередной раз усовершенствовал концепцию классического тянущего устройства. Ручка Spider Pen Pro – не что иное, как революционно новое электронное устройство, с которым ничто не идет в сравнение!

Spider Pen Pro - технологический прорыв в области левитации, позволяющий больше сконцентрироваться на самом трюке, а не способе его исполнения! Что в свою очередь дает безграничные возможности совершенствования искусства левитации и анимации предметов. Левитации с ручкой Spider Pen Pro выглядят настолько невероятно, что по производимому эффекту сравнимы лишь с голливудскими спец. эффектами!

"Это бесподобно!" – Финн Джон (Finn Jon)

Представьте, в процессе обычного разговора Вы просите собеседника одолжить ЛЮБУЮ купюру. И Вы сразу готовы продемонстрировать такую левитацию, которая еще НИКОГДА до этого не выглядела настолько невероятно, как сейчас! Вы кладете купюру на ладонь одной руки и накрываете другой рукой. Начинаете разводить руки в стороны, но купюра не падает вопреки ожиданиям, а остается свободно парить в воздухе! Легким прикосновением Вы заставляете купюру свободно вращаться в воздухе, в то время как сами отходите в сторону. Да, Вы отходите в сторону! Этому нет объяснений! Затем усилием воли Вы заставляете купюру медленно опуститься на пол и лежать неподвижно. После чего, и только тогда когда Вы этого пожелаете, купюра вновь воспаряет, устремляясь вверх, непосредственно в Ваши руки! После исполнения ТАКОЙ левитации, объяснить которую можно лишь привлечением потусторонних сил, невероятная реакция зрителей Вам обеспечена!

Невероятные эффекты с применением данной ручки демонстрировали на американском ТВ лучшие фокусники мира, такие как Cyril, Criss Angel, и многие другие!

Смотрите и учитесь основам левитации и различным нюансам непосредственно под руководством самого Yigal Mesika!

Эффекты:
• Zero Gravity Bill
• Terry Lunceford's Floating Finger Ring
• Floating Straw
• Walking Bill

Дополнительно Вы обучитесь технике безопасного обращения с катушками Spider Spool, что сбережет Вам немало денежных средств. Также Вы научитесь персональному способу Игаля Месики правильной фиксации Невидимых Нитей (НН) воском.
Описание Spider Pen Pro:
• Первое электронное устройство без каких-либо кнопок и переключателей!
• Приводится в действие электронным микро моторчиком.
• Никакого шума – устройство абсолютно беззвучно!
• Работает от одной батарейки типа “AAA”, которая прослужит Вам более года! (при ежедневном использовании, не чаще одного выступления в день, батарейки в комплект не входят.)
• Можно отходить на расстояние до 35 футов от объекта левитации!
• Обеспечено постоянное качественное натяжение, исключающее провисание и раскачивание объектов!
• Никаких пружин или резинок – что позволяет наматывать столько НН (I.T.), сколько потребуется!
• Заменить шпульку также просто как 1-2-3
• Настоящая пишущая ручка, чернила можно менять!
• Ручка сделана из высококачественной стали, покрытой хромом!
• Сменный клип – легко заменить на клип другого цвета
• Метод фиксации – позволяет левитировать и анимировать даже более тяжелые предметы!
• В комплекте обучающий DVD продолжительностью примерно 60 минут в разрешении HD.
• Единственное трюковое устройство, обладающее ТРЕМЯ патентами!
• СДЕЛАНО В США!

ВСЕ ЕЩЕ СОМНЕВАЕТЕСЬ?

• Ручкой Spider Pen Pro легко овладеть и она всегда готова к работе!
• Не похожа ни на одно другое тянущее устройство!
• Вам не нужно ничего прятать от зрителей!
• Устройство универсально!
• Выступайте без рукавов!
• Не требуется никаких ассистентов!
• Выступайте в полном окружении зрителей!!!
DVD можно скачать здесь http://rutracker.org/forum/viewtopic.php?t=4331832

Превью:
Качество: DVDRip
Формат: mov
Видео: MPEG4 Video 720x404 29.97fps 1097kbps
Аудио: AAC 44100Hz stereo 127kbps
MediaInfo
Код:
Код: Выделить всё
General
Complete name                  : D:\Video\Yigal Mesika - Spider Pen Pro DVDRip\1.mov
Format                         : MPEG-4
Format profile                 : QuickTime
Codec ID                       : qt
File size                      : 205 MiB
Duration                       : 23mn 14s
Overall bit rate mode          : Variable
Overall bit rate               : 1 231 Kbps
Movie name                     : Video_VTS_01_1.VOB
Performer                      : Unknown
Genre                          : MyVideo
Writing application            : DigiArty AV Encoder Core

Video
ID                             : 1
Format                         : MPEG-4 Visual
Format profile                 : Simple@L1
Format settings, BVOP          : No
Format settings, QPel          : No
Format settings, GMC           : No warppoints
Format settings, Matrix        : Default (H.263)
Codec ID                       : 20
Duration                       : 23mn 14s
Bit rate                       : 1 098 Kbps
Width                          : 720 pixels
Height                         : 404 pixels
Display aspect ratio           : 16:9
Frame rate mode                : Constant
Frame rate                     : 29.970 fps
Color space                    : YUV
Chroma subsampling             : 4:2:0
Bit depth                      : 8 bits
Scan type                      : Progressive
Compression mode               : Lossy
Bits/(Pixel*Frame)             : 0.126
Stream size                    : 183 MiB (89%)
Writing library                : DigiArty AV Encoder Core
Language                       : English

Audio
ID                             : 2
Format                         : AAC
Format/Info                    : Advanced Audio Codec
Format profile                 : LC
Codec ID                       : 40
Duration                       : 23mn 14s
Bit rate mode                  : Variable
Bit rate                       : 128 Kbps
Channel(s)                     : 2 channels
Channel positions              : Front: L R
Sampling rate                  : 44.1 KHz
Compression mode               : Lossy
Stream size                    : 21.3 MiB (10%)
Language                       : English

Скриншоты

Постеры

Соцсети

 

Статистика

Автор: Stepan
Добавлен: 30 окт 2013, 20:16
Размер: 389.94 МБ
Размер: 408 880 131 байт
Сидеров: 55
Личеров: 3
Скачали: 3
Здоровье: 100%
Раздающих: 100%
Скорость скачивания: 0 байт/сек
Скорость раздачи: 0 байт/сек
Последний сидер: 4 месяца 27 дней 3 часа 50 минут 27 секунд назад
Последний личер: 14 дней 6 часов 37 минут 6 секунд назад
Приватный: Нет (DHT включён)
Скачать торрент
Скачать торрент
[ Размер 15.82 КБ / Просмотров 10 ]

Поделиться


Вернуться в Фокусы и трюки