Видео


Сообщение

Видео Smiley by Laurent Mikelfield [2012, Фокусы с картами, ENG] (Видеоурок)

Сообщение Stepan » 30 окт 2013, 20:17

Smiley by Laurent Mikelfield

Страна: USA
Тематика: Фокусы с картами
Тип раздаваемого материала: Видеоурок
Продолжительность: 00:23:51
Год выпуска: 2012

Язык: Английский
Перевод: Отсутствует

Описание: Cмайл перескакивает с верхней карты на карту зрителя. Очень эффектно и визуально. Карта подписывается зрителем.

Доп. информация: гиммик в принципе сделать можно

Формат: FLV
MediaInfo
Format : Flash Video
File size : 88.8 MiB
Duration : 23mn 50s
Overall bit rate : 520 Kbps
httphostheader : r8---sn-4g57kuer.c.youtube.com

Video
Format : AVC
Format/Info : Advanced Video Codec
Format profile : Main@L3.0
Format settings, CABAC : Yes
Format settings, ReFrames : 3 frames
Codec ID : 7
Duration : 23mn 51s
Bit rate : 383 Kbps
Width : 640 pixels
Height : 480 pixels
Display aspect ratio : 4:3
Frame rate mode : Constant
Frame rate : 30.000 fps
Color space : YUV
Chroma subsampling : 4:2:0
Bit depth : 8 bits
Scan type : Progressive
Bits/(Pixel*Frame) : 0.042
Stream size : 65.3 MiB (74%)

Audio
Format : AAC
Format/Info : Advanced Audio Codec
Format profile : LC
Codec ID : 10
Duration : 23mn 51s
Bit rate : 129 Kbps
Channel(s) : 2 channels
Channel positions : Front: L R
Sampling rate : 44.1 KHz
Compression mode : Lossy
Stream size : 22.0 MiB (25%)
Скриншоты


Постеры

Соцсети

 

Статистика

Автор: Stepan
Добавлен: 30 окт 2013, 20:17
Размер: 88.8 МБ
Размер: 93 112 516 байт
Сидеров: 56
Личеров: 5
Скачали: 5
Здоровье: 100%
Раздающих: 100%
Скорость скачивания: 0 байт/сек
Скорость раздачи: 0 байт/сек
Последний сидер: 12 дней 5 часов 43 минуты 50 секунд назад
Последний личер: 12 дней 5 часов 43 минуты 50 секунд назад
Приватный: Нет (DHT включён)
Скачать торрент
Скачать торрент
[ Размер 14.42 КБ / Просмотров 17 ]

Поделиться


Вернуться в Фокусы и трюки