Видео


Сообщение

Видео The RPM Control by Bulla Lepen [2013, Карточная механика, WEBRip, ENG] (Видеоурок)

Сообщение Stepan » 30 окт 2013, 20:18

The RPM Control by Bulla Lepen

Страна: Великобритания
Тематика: Карточная механика
Тип раздаваемого материала: Видеоурок
Продолжительность: 00:19:22
Год выпуска: 2013

Язык: Английский
Перевод: Отсутствует

Описание: Новый метод контроля одной или нескольких карт на верх колоды.

Доп. информация: Превью - http://www.youtube.com/watch?v=Qnf82kLsMFY

Качество: WEBRip
Формат: WMV
Видео кодек: VC-1
Аудио кодек: WMA
Видео: VC-1, 1280x720, 16:9, 2525Kbps,30.000fps
Аудио: WMA, 96Kbps, 44.1KHz, 2ch
Скриншоты
MediaInfo
Формат : Windows Media
Размер файла : 359 Мбайт
Продолжительность : 19 м.
Режим общего битрейта : Постоянный
Общий поток : 2593 Кбит/сек
Максимальный общий битрейт : 2645 Кбит/сек
Название фильма : RPM Control
Исполнитель : Bulla Lepen
Дата кодирования : UTC 2013-09-17 05:21:32.851
Правообладатель : Ellusionist 2013
SfOriginalFPS : 300000

Видео
Идентификатор : 2
Формат : VC-1
Профиль формата : MP@HL
Идентификатор кодека : WMV3
Идентификатор кодека/Информация : Windows Media Video 9
Идентификатор кодека/Подсказка : WMV3
Описание кодека : Windows Media Video 9 - Professional
Продолжительность : 19 м.
Вид битрейта : Постоянный
Битрейт : 2525 Кбит/сек
Ширина : 1280 пикселей
Высота : 720 пикселей
Соотношение сторон : 16:9
Частота кадров : 30,000 кадров/сек
Цветовое пространство : YUV
Субдискретизация насыщенности : 4:2:0
Битовая глубина : 8 бит
Тип развёртки : Прогрессивная
Метод сжатия : С потерями
Бит/(Пиксели*Кадры) : 0.091
Размер потока : 350 Мбайт (97%)

Аудио
Идентификатор : 1
Формат : WMA
Версия формата : Version 2
Идентификатор кодека : 161
Идентификатор кодека/Информация : Windows Media Audio
Описание кодека : Windows Media Audio 9.2 - 96 kbps, 44 kHz, stereo (A/V) 1-pass CBR
Продолжительность : 19 м.
Вид битрейта : Постоянный
Битрейт : 96,0 Кбит/сек
Каналы : 2 канала
Частота : 44,1 КГц
Битовая глубина : 16 бит
Размер потока : 13,3 Мбайт (4%)

Постеры

Соцсети

 

Статистика

Автор: Stepan
Добавлен: 30 окт 2013, 20:18
Размер: 359.36 МБ
Размер: 376 820 545 байт
Сидеров: 54
Личеров: 13
Скачали: 8
Здоровье: 100%
Раздающих: 100%
Скорость скачивания: 0 байт/сек
Скорость раздачи: 0 байт/сек
Последний сидер: 12 дней 9 часов 12 минут 15 секунд назад
Последний личер: 12 дней 9 часов 12 минут 15 секунд назад
Приватный: Нет (DHT включён)
Скачать торрент
Скачать торрент
[ Размер 14.61 КБ / Просмотров 26 ]

Поделиться


Вернуться в Фокусы и трюки