Видео


Сообщение

Видео The Wrong Path by Justin Miller [2013, Карточные фокусы, HDRip, ENG] (Видеоурок)

Сообщение Stepan » 30 окт 2013, 20:19

The Wrong Path by Justin Miller

Страна: Великобритания
Тематика: Карточные фокусы
Тип раздаваемого материала: Видеоурок
Продолжительность: 00:12:54
Год выпуска: 2013

Язык: Английский
Перевод: Отсутствует

Описание: Новый трюк от Джастина Миллера. Очень крутой эффект на мой взгляд.

Доп. информация: Превью, описание на английском, отзывы.

Качество: HDRip
Формат: WMV
Видео кодек: VC-1
Аудио кодек: WMA
Видео: VC-1, 960x540, 16:9, 2000kbps, 25.000fps
Аудио: WMA, 96Kbps, 44.1 KHz, 2ch
Скриншоты
MediaInfo
Format : Windows Media
File size : 220 MiB
Duration : 12mn 54s
Overall bit rate mode : Constant
Overall bit rate : 2 385 Kbps
Maximum Overall bit rate : 2 434 Kbps
Movie name : WrongPath by Justin Miller
Performer : Justin Miller
Encoded date : UTC 2013-10-09 14:23:14.254
Copyright : Ellusionist 2013
SfOriginalFPS : 300000

Video
ID : 2
Format : VC-1
Format profile : MP@HL
Codec ID : WMV3
Codec ID/Info : Windows Media Video 9
Codec ID/Hint : WMV3
Description of the codec : Windows Media Video 9 - Professional
Duration : 12mn 54s
Bit rate mode : Constant
Bit rate : 2 316 Kbps
Width : 960 pixels
Height : 540 pixels
Display aspect ratio : 16:9
Frame rate : 30.000 fps
Color space : YUV
Chroma subsampling : 4:2:0
Bit depth : 8 bits
Scan type : Progressive
Compression mode : Lossy
Bits/(Pixel*Frame) : 0.149
Stream size : 214 MiB (97%)

Audio
ID : 1
Format : WMA
Format version : Version 2
Codec ID : 161
Codec ID/Info : Windows Media Audio
Description of the codec : Windows Media Audio 9.2 - 96 kbps, 44 kHz, stereo (A/V) 1-pass CBR
Duration : 12mn 54s
Bit rate mode : Constant
Bit rate : 96.0 Kbps
Channel(s) : 2 channels
Sampling rate : 44.1 KHz
Bit depth : 16 bits
Stream size : 8.87 MiB (4%)

Постеры

Соцсети

 

Статистика

Автор: Stepan
Добавлен: 30 окт 2013, 20:19
Размер: 220.14 МБ
Размер: 230 834 245 байт
Сидеров: 297
Личеров: 20
Скачали: 3
Здоровье: 100%
Раздающих: 100%
Скорость скачивания: 0 байт/сек
Скорость раздачи: 0 байт/сек
Последний сидер: 6 месяцев 16 дней 18 часов 56 минут 8 секунд назад
Последний личер: 12 дней 9 часов 12 минут 53 секунды назад
Приватный: Нет (DHT включён)
Скачать торрент
Скачать торрент
[ Размер 17.79 КБ / Просмотров 15 ]

Поделиться


Вернуться в Фокусы и трюки