Видео


Сообщение

Видео The Unreal Work 2 by Paul Wilson & Jason England [2012, Карточная механика, DVDRip-AVC, ENG] (Видеоурок)

Сообщение Stepan » 30 окт 2013, 20:19

The Unreal Work 2 by Paul Wilson & Jason England

Страна: США
Тематика: Карточная механика
Тип раздаваемого материала: Видеоурок
Продолжительность: 01:12:57
Год выпуска: 2012

Язык: Английский
Перевод: Отсутствует

Описание: 13 гамблерских рутин и техник.

Доп. информация: Превью, описание, отзывы
P.S. Первая часть тут

Качество: DVDRip-AVC
Формат: MP4
Видео кодек: AVC
Аудио кодек: AAC
Видео: AVC, 640x360 (16:9), 517 kbps, 23.976 fps
Аудио: AAC, 48 khz, 2 ch, 109 kbps
Скриншоты


MediaInfo
Код:
Код: Выделить всё
Формат                                   : MPEG-4
Профиль формата                          : Base Media / Version 2
Идентификатор кодека                     : mp42
Размер файла                             : 16,7 Мбайт
Продолжительность                        : 3 м. 42 с.
Режим общего битрейта                    : Переменный
Общий поток                              : 630 Кбит/сек
Дата кодирования                         : UTC 2012-11-17 00:49:36
Дата пометки                             : UTC 2012-11-17 00:49:36

Видео
Идентификатор                            : 1
Формат                                   : AVC
Формат/Информация                        : Advanced Video Codec
Профиль формата                          : High@L3.1
Параметр CABAC формата                   : Да
Параметр ReFrames формата                : 4 кадра
Идентификатор кодека                     : avc1
Идентификатор кодека/Информация          : Advanced Video Coding
Продолжительность                        : 3 м. 42 с.
Битрейт                                  : 517 Кбит/сек
Ширина                                   : 640 пикселей
Высота                                   : 360 пикселей
Соотношение сторон                       : 16:9
Режим частоты кадров                     : Постоянный
Частота кадров                           : 23,976 кадра/сек
Цветовое пространство                    : YUV
Субдискретизация насыщенности            : 4:2:0
Битовая глубина                          : 8 бит
Тип развёртки                            : Прогрессивная
Бит/(Пиксели*Кадры)                      : 0.094
Размер потока                            : 13,7 Мбайт (82%)
Библиотека кодирования                   : x264 core 128 r2216 198a7ea
Настройки программы                      : cabac=1 / ref=3 / deblock=1:0:0 / analyse=0x3:0x113 / me=hex / subme=7 / psy=1 / psy_rd=1.00:0.00 / mixed_ref=1 / me_range=16 / chroma_me=1 / trellis=1 / 8x8dct=1 / cqm=0 / deadzone=21,11 / fast_pskip=1 / chroma_qp_offset=-2 / threads=12 / lookahead_threads=2 / sliced_threads=0 / nr=0 / decimate=1 / interlaced=0 / bluray_compat=0 / constrained_intra=0 / bframes=3 / b_pyramid=2 / b_adapt=1 / b_bias=0 / direct=1 / weightb=1 / open_gop=0 / weightp=2 / keyint=72 / keyint_min=24 / scenecut=40 / intra_refresh=0 / rc_lookahead=40 / rc=2pass / mbtree=1 / bitrate=517 / ratetol=1.0 / qcomp=0.60 / qpmin=5 / qpmax=69 / qpstep=4 / cplxblur=20.0 / qblur=0.5 / vbv_maxrate=1125 / vbv_bufsize=3750 / nal_hrd=none / ip_ratio=1.40 / aq=1:1.00
Дата кодирования                         : UTC 2012-11-17 00:49:36
Дата пометки                             : UTC 2012-11-17 00:49:36

Аудио
Идентификатор                            : 2
Формат                                   : AAC
Формат/Информация                        : Advanced Audio Codec
Профиль формата                          : LC
Идентификатор кодека                     : 40
Продолжительность                        : 3 м. 42 с.
Продолжительность оригинала              : 3 м. 42 с.
Вид битрейта                             : Переменный
Битрейт                                  : 109 Кбит/сек
Каналы                                   : 2 канала
Расположение каналов                     : Front: L R
Частота                                  : 48,0 КГц
Метод сжатия                             : С потерями
Задержка видео                           : 40 мс.
Размер потока                            : 2,90 Мбайт (17%)
Размер потока оригинала                  : 2,90 Мбайт (17%)
Дата кодирования                         : UTC 2012-11-17 00:49:36
Дата пометки                             : UTC 2012-11-17 00:49:36

Постеры

Соцсети

 

Статистика

Автор: Stepan
Добавлен: 30 окт 2013, 20:19
Размер: 390.82 МБ
Размер: 409 808 311 байт
Сидеров: 144
Личеров: 10
Скачали: 6
Здоровье: 100%
Раздающих: 100%
Скорость скачивания: 0 байт/сек
Скорость раздачи: 0 байт/сек
Последний сидер: 7 месяцев 3 дня 12 часов 25 минут 32 секунды назад
Последний личер: 14 дней 8 часов 44 минуты 27 секунд назад
Приватный: Нет (DHT включён)
Скачать торрент
Скачать торрент
[ Размер 16.62 КБ / Просмотров 31 ]

Поделиться


Вернуться в Фокусы и трюки