Видео


Сообщение

Видео Doppelganger Control by Justin Miller [2013, Карточная механика, HDTVRip, ENG] (Видеоурок)

Сообщение Stepan » 30 окт 2013, 20:20

Doppelganger Control by Justin Miller

Страна: Великобритания
Тематика: Карточная механика
Тип раздаваемого материала: Видеоурок
Продолжительность: 00:05:02
Год выпуска: 2013

Язык: Английский
Перевод: Отсутствует

Описание: Контроль карты на верх колоды. Довольно неплохой и простенький.

Доп. информация: Превью - http://www.ellusionist.com/doppelganger-control-by-justin-miller.html
Качество: HDTVRip
Формат: MP4
Видео кодек: VC-1
Аудио кодек: AAC
Видео: VC-1, 960x540, 16:9, 1750Kbps, 25,000fps
Аудио: AAC, 96kbps, 44,1khz, 2ch
Скриншоты
MediaInfo
Format : MPEG-4
Format profile : Base Media / Version 2
Codec ID : mp42
File size : 66.3 MiB
Duration : 5mn 2s
Overall bit rate mode : Variable
Overall bit rate : 1 840 Kbps
Movie name : Doppelganger Control
Performer : Justin Miller
Recorded date : 2013

Video
ID : 1
Format : AVC
Format/Info : Advanced Video Codec
Format profile : High@L3.1
Format settings, CABAC : Yes
Format settings, ReFrames : 4 frames
Codec ID : avc1
Codec ID/Info : Advanced Video Coding
Duration : 5mn 2s
Bit rate mode : Variable
Bit rate : 1 750 Kbps
Width : 960 pixels
Height : 540 pixels
Display aspect ratio : 16:9
Frame rate mode : Variable
Frame rate : 25.000 fps
Minimum frame rate : 12.500 fps
Maximum frame rate : 30.000 fps
Color space : YUV
Chroma subsampling : 4:2:0
Bit depth : 8 bits
Scan type : Progressive
Bits/(Pixel*Frame) : 0.135
Stream size : 62.7 MiB (95%)

ID : 2
Format : AAC
Format/Info : Advanced Audio Codec
Format profile : LC
Codec ID : 40
Duration : 5mn 2s
Bit rate mode : Variable
Bit rate : 96.0 Kbps
Maximum bit rate : 122 Kbps
Channel(s) : 2 channels
Channel positions : Front: L R
Sampling rate : 44.1 KHz
Compression mode : Lossy
Delay relative to video : 80ms
Stream size : 3.46 MiB (5%)

Постеры

Соцсети

 

Статистика

Автор: Stepan
Добавлен: 30 окт 2013, 20:20
Размер: 66.32 МБ
Размер: 69 538 252 байт
Сидеров: 179
Личеров: 4
Скачали: 4
Здоровье: 100%
Раздающих: 100%
Скорость скачивания: 0 байт/сек
Скорость раздачи: 0 байт/сек
Последний сидер: 14 дней 6 часов 29 минут 11 секунд назад
Последний личер: 14 дней 6 часов 29 минут 11 секунд назад
Приватный: Нет (DHT включён)
Скачать торрент
Скачать торрент
[ Размер 10.84 КБ / Просмотров 23 ]

Поделиться


Вернуться в Фокусы и трюки