Видео


Сообщение

Видео Dropbox change by Justin Miller [2013, Карточные фокусы, HDTVRip, ENG] (Видеоурок)

Сообщение Stepan » 30 окт 2013, 20:27

Dropbox change by Justin Miller

Страна: Великобритания
Тематика: Карточные фокусы
Тип раздаваемого материала: Видеоурок
Продолжительность: 00:06:15
Год выпуска: 2013

Язык: Английский
Перевод: Отсутствует

Описание: Неплохая сменка от всеми известного Джастина Миллера.

Доп. информация: Превью - http://www.youtube.com/watch?v=d6HSzfR-YZI

Качество: HDTVRip
Формат: WMV
Видео кодек: VC-1
Аудио кодек: WMA
Видео: VC-1, 960x540, 16:9, 1750Kbps,25.000 fps
Аудио: WMA, 96Kbps, 44.1KHz, 2ch
Скриншоты
MediaInfo
Format : Windows Media
File size : 82.1 MiB
Duration : 6mn 15s
Overall bit rate mode : Constant
Overall bit rate : 1 835 Kbps
Maximum Overall bit rate : 1 863 Kbps
Encoded date : UTC 2013-09-10 15:06:19.141

Video
ID : 1
Format : VC-1
Format profile : MP@HL
Codec ID : WMV3
Codec ID/Info : Windows Media Video 9
Codec ID/Hint : WMV3
Description of the codec : Windows Media Video 9 - Professional
Duration : 6mn 15s
Bit rate mode : Constant
Bit rate : 1 750 Kbps
Width : 960 pixels
Height : 540 pixels
Display aspect ratio : 16:9
Frame rate : 25.000 fps
Color space : YUV
Chroma subsampling : 4:2:0
Bit depth : 8 bits
Scan type : Progressive
Compression mode : Lossy
Bits/(Pixel*Frame) : 0.135
Stream size : 78.3 MiB (95%)
Language : English (US)

Audio
ID : 2
Format : WMA
Format version : Version 2
Codec ID : 161
Codec ID/Info : Windows Media Audio
Description of the codec : Windows Media Audio 9.2 - 96 kbps, 44 kHz, stereo 1-pass CBR
Duration : 6mn 15s
Bit rate mode : Constant
Bit rate : 96.0 Kbps
Channel(s) : 2 channels
Sampling rate : 44.1 KHz
Bit depth : 16 bits
Stream size : 4.30 MiB (5%)
Language : English (US)

Постеры

Соцсети

 

Статистика

Автор: Stepan
Добавлен: 30 окт 2013, 20:27
Размер: 82.1 МБ
Размер: 86 087 651 байт
Сидеров: 184
Личеров: 21
Скачали: 7
Здоровье: 100%
Раздающих: 100%
Скорость скачивания: 0 байт/сек
Скорость раздачи: 0 байт/сек
Последний сидер: 14 дней 6 часов 28 минут 56 секунд назад
Последний личер: 14 дней 6 часов 28 минут 56 секунд назад
Приватный: Нет (DHT включён)
Скачать торрент
Скачать торрент
[ Размер 13.39 КБ / Просмотров 35 ]

Поделиться


Вернуться в Фокусы и трюки