Видео


Сообщение

Видео Card to pocket by Daniel Madison [2013, Карточные фокусы, HDTVRip, ENG] (Видеоурок)

Сообщение Stepan » 30 окт 2013, 20:27

Card to pocket by Daniel Madison

Страна: Великобритания
Тематика: Карточные фокусы
Тип раздаваемого материала: Видеоурок
Продолжительность: 00:19:11
Год выпуска: 2013

Язык: Английский
Перевод: Отсутствует

Описание: Зритель выбирает и подписывает карту. Фокусник кладет эту карту на ладонь зрителя и накрывает колодой. Зритель переворачивает колоду и обнаруживает, что его карты там нет. Дальше фокусник просит взглянуть на свой задний карман: из него торчит выбранная карта.

Доп. информация: Превью - http://www.youtube.com/watch?v=T4dJUp8jw-s

Качество: HDTVRip
Формат: WMV
Видео кодек: VC-1
Аудио кодек: WMA
Видео: VC-1, 1280x720, 16:9, 2525kbps, 30,000fps
Аудио: WMA, 96,0kbps, 44,1khz, 2ch
Скриншоты
MediaInfo
формат : Windows Media
Размер файла : 353 Мбайт
Продолжительность : 19 м.
Режим общего битрейта : Постоянный
Общий поток : 2574 Кбит/сек
Максимальный общий битрейт : 2645 Кбит/сек
Название фильма : Card to Pocket
Исполнитель : Daniel Madison
Дата кодирования : UTC 2013-09-17 00:50:32.730
Правообладатель : Ellusionist 2013
SfOriginalFPS : 300000

Видео
Идентификатор : 2
Формат : VC-1
Профиль формата : MP@HL
Идентификатор кодека : WMV3
Идентификатор кодека/Информация : Windows Media Video 9
Идентификатор кодека/Подсказка : WMV3
Описание кодека : Windows Media Video 9 - Professional
Продолжительность : 19 м.
Вид битрейта : Постоянный
Битрейт : 2525 Кбит/сек
Ширина : 1280 пикселей
Высота : 720 пикселей
Соотношение сторон : 16:9
Частота кадров : 30,000 кадров/сек
Цветовое пространство : YUV
Субдискретизация насыщенности : 4:2:0
Битовая глубина : 8 бит
Тип развёртки : Прогрессивная
Метод сжатия : С потерями
Бит/(Пиксели*Кадры) : 0.091
Размер потока : 347 Мбайт (98%)

Аудио
Идентификатор : 1
Формат : WMA
Версия формата : Version 2
Идентификатор кодека : 161
Идентификатор кодека/Информация : Windows Media Audio
Описание кодека : Windows Media Audio 9.2 - 96 kbps, 44 kHz, stereo (A/V) 1-pass CBR
Продолжительность : 19 м.
Вид битрейта : Постоянный
Битрейт : 96,0 Кбит/сек
Каналы : 2 канала
Частота : 44,1 КГц
Битовая глубина : 16 бит
Размер потока : 13,2 Мбайт (4%)

Постеры

Соцсети

 

Статистика

Автор: Stepan
Добавлен: 30 окт 2013, 20:27
Размер: 353.13 МБ
Размер: 370 284 501 байт
Сидеров: 142
Личеров: 10
Скачали: 17
Здоровье: 100%
Раздающих: 100%
Скорость скачивания: 0 байт/сек
Скорость раздачи: 0 байт/сек
Последний сидер: 5 месяцев 22 дня 13 часов 22 минуты 7 секунд назад
Последний личер: 12 дней 8 часов 59 минут 43 секунды назад
Приватный: Нет (DHT включён)
Скачать торрент
Скачать торрент
[ Размер 14.39 КБ / Просмотров 46 ]

Поделиться


Вернуться в Фокусы и трюки