Видео


Сообщение

Видео Wreck by Daniel Madison [2013, Карточные фокусы, HDRip, ENG] (Видеоурок)

Сообщение Stepan » 30 окт 2013, 20:28

Wreck by Daniel Madison

Страна: Великобритания
Тематика: Карточные фокусы
Тип раздаваемого материала: Видеоурок
Продолжительность: 00:25:03
Год выпуска: 2013

Язык: Английский
Перевод: Отсутствует

Описание: Подписанная карта замешивается в колоду, колода кладётся в коробку. Фокусник рвёт колоду напополам, но карта зрителя остаётся целой.

Доп. информация: Превью, описание на английском, отзывы.

Качество: HDRip
Формат: MP4
Видео кодек: XviD
Аудио кодек: AAC
Видео: XviD, 640x360(16:9), 786kbps, 25fps
Аудио: AAC, 101kbps, 44,1kHz, 2ch
Скриншоты


MediaInfo
Код:
Код: Выделить всё
Формат                                   : MPEG-4
Профиль формата                          : Base Media / Version 2
Идентификатор кодека                     : mp42
Размер файла                             : 159 Мбайт
Продолжительность                        : 25 м.
Режим общего битрейта                    : Переменный
Общий поток                              : 889 Кбит/сек
Дата кодирования                         : UTC 2013-09-16 06:36:53
Дата пометки                             : UTC 2013-09-16 06:37:12
Программа кодирования                    : mp4creator 1.6.1d

Видео
Идентификатор                            : 1
Формат                                   : MPEG-4 Visual
Профиль формата                          : Simple@L1
Параметр BVOP формата                    : Нет
Параметр QPel формата                    : Нет
Параметр GMC формата                     : Без точки перехода
Параметр матрицы формата                 : Default (H.263)
Идентификатор кодека                     : 20
Продолжительность                        : 25 м.
Вид битрейта                             : Переменный
Битрейт                                  : 786 Кбит/сек
Максимальный битрейт                     : 1712 Кбит/сек
Ширина                                   : 640 пикселей
Высота                                   : 360 пикселей
Соотношение сторон                       : 16:9
Режим частоты кадров                     : Постоянный
Частота кадров                           : 25,000 кадров/сек
Цветовое пространство                    : YUV
Субдискретизация насыщенности            : 4:2:0
Битовая глубина                          : 8 бит
Тип развёртки                            : Прогрессивная
Метод сжатия                             : С потерями
Бит/(Пиксели*Кадры)                      : 0.136
Размер потока                            : 141 Мбайт (88%)
Язык                                     : English
Дата кодирования                         : UTC 2013-09-16 06:36:53
Дата пометки                             : UTC 2013-09-16 06:37:11

Аудио
Идентификатор                            : 2
Формат                                   : AAC
Формат/Информация                        : Advanced Audio Codec
Профиль формата                          : LC
Идентификатор кодека                     : 40
Продолжительность                        : 25 м.
Продолжительность оригинала              : 25 м.
Вид битрейта                             : Переменный
Битрейт                                  : 101 Кбит/сек
Максимальный битрейт                     : 117 Кбит/сек
Каналы                                   : 2 канала
Расположение каналов                     : Front: L R
Частота                                  : 44,1 КГц
Метод сжатия                             : С потерями
Размер потока                            : 18,1 Мбайт (11%)
Размер потока оригинала                  : 18,1 Мбайт (11%)
Язык                                     : English
Дата кодирования                         : UTC 2013-09-16 06:37:11
Дата пометки                             : UTC 2013-09-16 06:37:12

Постеры

Соцсети

 

Статистика

Автор: Stepan
Добавлен: 30 окт 2013, 20:28
Размер: 159.24 МБ
Размер: 166 974 052 байт
Сидеров: 110
Личеров: 7
Скачали: 7
Здоровье: 100%
Раздающих: 100%
Скорость скачивания: 0 байт/сек
Скорость раздачи: 0 байт/сек
Последний сидер: 5 месяцев 27 дней 23 часа 36 минут 31 секунду назад
Последний личер: 11 дней 21 час 39 минут 59 секунд назад
Приватный: Нет (DHT включён)
Скачать торрент
Скачать торрент
[ Размер 12.9 КБ / Просмотров 32 ]

Поделиться


Вернуться в Фокусы и трюки