Видео


Сообщение

Видео Josie Neglia: Night Club Cha Cha [2002, ChaCha, клубная латина, DVD5, ENG] (Видеоурок)

Сообщение Sid » 03 ноя 2013, 22:31

Josie Neglia: Night Club Cha Cha

Страна: USA
Тематика: ChaCha
Тип раздаваемого материала: Видеоурок
Продолжительность: 01:10:00
Год выпуска: 2002

Язык: Английский
Перевод: Отсутствует

Язык субтитров: Отсутствует
Описание: Josie Neglia (Джози Неглия) - известна как сальса принцесса Лос-Анджелеса. У Джози диплом бакалавра по танцам университета Йорк, Канада. У ее есть официальные тренинги по балету, джазу и бальным танцам. Воодушевляющая и
электризующая исполнительница. Джози выпустила несколько видеокурсов по сальсе и латиноамериканским танцам. Превосходный инструктор, ее легкодоступный метод заработал ей поток студентов по всему миру.

Peta Siddal (5/25/66 - 4/26/99)
Пета Сиддал - танцор мирового класса с экстенсивным преподавание бальных танцев в Англии. Он выстумает с 8-ми лет и выиграл ряд международных чемпионатов по латиноамериканским танцам.
Взрывной исполнитель, Пета также обучал некоторых танцоров латиноамериканских танцев мировой величины. Его способность как инструктора помочь студентам достичь техники и отшлифовать их потребности поднять свой танцевальный уровень на более высокий уровень.
Содержание:
20 Variations from level 1 to level 4 Steps:
Basic side to side
Basic forward & back
Open Break / Under Arm Turn
Open Break / Under Arm Turn (Right to Right)
Cross Over Break with Under Arm Turn
Cross Over Break (double break) with Walk Around
Cross Over Break (syncopated) with double Under Arm Turn
Progressive Left Box
Cross Body Lead with Lady's Tuck-in Free Spin
Open Break with Arm Push
Natural Top with Under Arm Turn
Open Break, Lady's wrap around man's back with man's hook turn
Two-sided break with man wrap
Sweetheart with turns
Towel with head roll
Two Quick Cross Body Leads, Cross over break, walk around
Cross Body Lead (Right to Right) with Lady's swivel & free spin
Right to Right Cha Cha Circle
Double sweetheart to shadow, Left Box, Lady's free spin
Swivels to dip
Рецензия
by Manuel Pedreira Date Added: Wednesday 17 September, 2003

My wife and I have learnt to dance chacha with this video. I strong recomend it for dancers coming from salsa dance. The partners are very nice and can be danced in pubs without problem. Dancers who like cuban dance, will appreciate this video because the style is very close to cuban chacha.

Rating: [5 of 5 Stars!]
Качество : DVD5
Формат: DVD video
Видео кодек: MPEG2
Аудио кодек: AC3
Видео: 8 000 Kbps, 29.970 fps, 720*480 (4:3), VBR
Аудио: 192 Kbps, 48.0 kHz, stereo, AC-3
Отчет MediaInfo
General
Complete name : Josie Neglia, Peta Siddall - Night Club ChaCha\VIDEO_TS\VTS_02_1.VOB
Format : MPEG-PS
File size : 569 MiB
Duration : 1h 11mn
Overall bit rate : 1 110 Kbps

Video
ID : 224 (0xE0)
Format : MPEG Video
Format version : Version 2
Format profile : Main@Main
Format settings, BVOP : Yes
Format settings, Matrix : Default
Duration : 1h 11mn
Bit rate mode : Variable
Bit rate : 895 Kbps
Nominal bit rate : 8 000 Kbps
Width : 720 pixels
Height : 480 pixels
Display aspect ratio : 4:3
Frame rate : 29.970 fps
Standard : NTSC
Color space : YUV
Chroma subsampling : 4:2:0
Bit depth : 8 bits
Scan type : Interlaced
Scan order : Bottom Field First
Bits/(Pixel*Frame) : 0.086
Stream size : 459 MiB (81%)

Audio
ID : 128 (0x80)
Format : AC-3
Format/Info : Audio Coding 3
Mode extension : CM (complete main)
Duration : 1h 11mn
Bit rate mode : Constant
Bit rate : 192 Kbps
Channel(s) : 2 channels
Channel positions : Front: L R
Sampling rate : 48.0 KHz
Bit depth : 16 bits
Stream size : 98.5 MiB (17%)

Menu
Скриншоты

Постеры

Соцсети

 

Статистика

Автор: Sid
Добавлен: 03 ноя 2013, 22:31
Размер: 570.94 МБ
Размер: 598 677 504 байт
Сидеров: 22
Личеров: 5
Скачали: 1
Здоровье: 100%
Раздающих: 100%
Скорость скачивания: 0 байт/сек
Скорость раздачи: 0 байт/сек
Последний сидер: 1 год 2 месяца 26 дней 2 часа 28 минут назад
Последний личер: 1 год 3 месяца 8 дней 1 час 13 минут 41 секунду назад
Приватный: Нет (DHT включён)
Скачать торрент
Скачать торрент
[ Размер 12.18 КБ / Просмотров 8 ]

Поделиться


  • Похожие торренты
    Ответы
    Просмотры
    Последнее сообщение

Вернуться в Учимся танцевать