Видео


Сообщение

Видео Veena and Neena: Bollywood Blast - The Ultimate Bollywood Dance Workout [2007 г., Fitness, DVDRip, ENG]

Сообщение Sid » 03 ноя 2013, 22:31

Veena and Neena: Bollywood Blast - The Ultimate Bollywood Dance Workout

Год выпуска: 2007
Страна: USA
Жанр: Fitness
Продолжительность: 00:28
Язык: Английский

Описание: The world famous Bellytwins (Veena & Neena) have taken the hottest moves from their breathtaking Bollywood shows and created a whole new dance based workout that is straight out the Indian musical craze!
Bollywood Blast opens with yoga-inspired stretches, continues with a strengthening series of isometrics based on classical Indian dances, and blows up with a cardio series containing the latest Bollywood moves.
Then it's all put together for a fun dance routine followed by a yoga cool down for flexibility.

Качество: DVDRip
Формат: AVI
Видео кодек: DivX
Аудио кодек: MP3
Видео: DivX 5 720x544 29.97fps 1553 Кбит/сек
Аудио: MPEG Audio Layer 3 48000Hz stereo 173kbps
Отчет MediaInfo
General
Complete name : G:\BellyTwins-Bollywood Blast.avi
Format : AVI
Format/Info : Audio Video Interleave
File size : 350 MiB
Duration : 28mn 5s
Overall bit rate : 1 740 Kbps
Writing application : VirtualDubMod 1.5.4.1 (build 2178/release)
Writing library : VirtualDubMod build 2178/release

Video
ID : 0
Format : MPEG-4 Visual
Format settings, BVOP : Yes
Format settings, QPel : No
Format settings, GMC : No warppoints
Format settings, Matrix : Default (H.263)
Muxing mode : Packed bitstream
Codec ID : DX50
Codec ID/Hint : DivX 5
Duration : 28mn 5s
Bit rate : 1 553 Kbps
Width : 720 pixels
Height : 544 pixels
Display aspect ratio : 4:3
Frame rate : 29.970 fps
Resolution : 24 bits
Colorimetry : 4:2:0
Scan type : Progressive
Bits/(Pixel*Frame) : 0.132
Stream size : 312 MiB (89%)
Writing library : DivX 6.8.5

Audio
ID : 1
Format : MPEG Audio
Format version : Version 1
Format profile : Layer 3
Codec ID : 55
Codec ID/Hint : MP3
Duration : 28mn 5s
Bit rate mode : Variable
Bit rate : 173 Kbps
Nominal bit rate : 192 Kbps
Channel(s) : 2 channels
Sampling rate : 48.0 KHz
Resolution : 16 bits
Stream size : 34.8 MiB (10%)
Alignment : Aligned on interleaves
Interleave, duration : 24 ms (0.72 video frame)
Interleave, preload duration : 106 ms
Writing library : LAME3.97
Encoding settings : -m j -V 4 -q 2 -lowpass 18.6 --abr 192
Скриншоты

Постеры

Соцсети

 

Статистика

Автор: Sid
Добавлен: 03 ноя 2013, 22:31
Размер: 349.71 МБ
Размер: 366 702 592 байт
Сидеров: 6
Личеров: 0
Скачали: 0
Здоровье: 100%
Раздающих: 100%
Скорость скачивания: 0 байт/сек
Скорость раздачи: 0 байт/сек
Последний сидер: 1 год 7 месяцев 29 дней 7 часов 34 минуты 30 секунд назад
Последний личер: 1 год 8 месяцев 5 часов 22 минуты 30 секунд назад
Приватный: Нет (DHT включён)
Скачать торрент
Скачать торрент
[ Размер 14.15 КБ / Просмотров 4 ]

Поделиться


  • Похожие торренты
    Ответы
    Просмотры
    Последнее сообщение

Вернуться в Учимся танцевать