Видео


Сообщение

Видео Nelson & Sophia: Kizomba I & II [2010, Kizomba, DVDRip, ENG] (Видеоурок)

Сообщение Sid » 03 ноя 2013, 22:32

Nelson & Sophia: Kizomba I & II

Страна: UK
Тематика: Kizomba
Тип раздаваемого материала: Видеоурок
Продолжительность: 01:52:51
Год выпуска: 2010

Язык: Английский
Перевод: Отсутствует

Язык субтитров: Отсутствует
DVD5:
Nelson & Sophia: Kizomba I & II

Описание: Нельсон и София взволнованы и рады представить первый на рынке профессиональный английский обучающий ДВД по Кизомбе.
113 минут отличного обучения и в целом - хореография 16-ти изумительных связок мастерами-преподавателями Кизомбы.
Это ограниченное издание двд Кизомбы включает комбинацию уровней 1 и 2, предлагает невероятное соотношение цены и качества.

Этот двд предназначен для начинающих танцевать Кизомбу и в то же время предлогает красивые связки для развития вашего стиля.

В первой части этого двд Нельсон и София обучат нескольким базовым связкам, шаг за шагом, с ясным объяснением, включая работу ног для партнеров и партнерш, технику ведения и следования и широкие возможности для практики под музыку.
Вторая часть посвязена изучению некоторых изумительных связок для ускорения ваших танцевальных навыков и позволит вам блистать на танцполе.

Доп. информация:
О преподавателях:
Nelson & Sophia: Kent Salsa

Nelson de Oliveira Campos
UKA certified professional teacher- all levels

Founder and Director of Kent Salsa and Kizomba

From Lisbon-Portugal, Nelson has been living in the UK since 1999. He has been dancing Salsa, Kizomba, Merengue,

Lambada and Samba all his life. His teaching experience dates back more than 15 years, when he first started

teaching in Barcelona- Spain. He has been teaching all over Europe ever since and is well-known for his energetic

classes, full of fun and his extraordinary patience and passion for teaching and dancing.

Nelson has UKA diploma as a professional dance teacher as well as teaching Qualification City and Guilds 7407

through Kent Council/Adult Education Centre.

Currently Nelson is teaching Salsa, Bachata, Kizomba, Merengue and ChaCha classes on a regular basis in the Kent

area. His specialty is Kizomba, a beautiful mixture of Salsa, Tango and Samba from Angola. Nelson is also regularly

giving Workshops abroad and performing Shows internationally. He has just released the first ever English

professional instructional DVD of Kizomba Dance with Sophia.

Sophia Meyer
Switzerland, Kent Salsa Teacher and Nelson’s Dance Partner – Absolute Beginner and Beginner Levels Salsa, Kizomba

all Levels

From Switzerland, Sophia has been involved in Afro Dancing as a teenager and performed Shows with an Afro Dance

Company from Zürich. Sophia has learnt Salsa dancing the natural way by living and travelling in South America for

many years. Since she has met Nelson, she is improving her technical skills of dancing and has started teaching on

a regular basis. She is well-known for her positive, clear teaching style, making sure everyone really gets it.In

Kizomba dancing she found her new passion, where Afro and Latino roots are united. With Nelson she has released a

Kizomba DVD and is teaching Weekend Workshops of Kizomba as well as performing Kizomba shows in the UK and abroad.
Рецензия:
by fabio SalsaIsGood Date Added: Wednesday 04 August, 2010
The latest equation in the latin dance scene goes roughly like this:

Bachata hip movement +
Merengue motion +
Lambada hold +
Tango steps =
----------------
Kizomba

However, this does not imply that if you can already dance Bachata, Lambada and Tango you necessarily will be able to dance Kizomba. This is mostly because of the bizarre and variable count used in the dance, which ranges between 3 beats basic steps (to 4 beat music!) to moves of 4, 6, 8 and even 12 beats. This is where Kent Salsa comes handy with their Kizomba level 1 and 2 DVD. They cover the basic elements in a simple and clear manner. If you already dance at least one 'Caribbean' style dance (zouk, bachata or salsa) as well as tango, this DVD will give you the few hints you need and you will be able to dance a beginner level Kizomba in a jiffy. If you are a novice in those dances you may need a bit more practice, but the necessary explanation is all contained. A simple, but effective product.

Rating: [3 of 5 Stars!]
Fabio from SalsaIsGood
Качество : DVDRip
Формат: AVI
Видео кодек: XviD
Аудио кодек: MP3
Видео: 640x480 (1.33:1), 29.970 fps, XviD Lavf51.12.1~825 kbps avg, 0.090 bit/pixel
Аудио: 44.1 kHz, MPEG Layer 3, 2 ch, ~128.00 kbps Constant
Отчет MediaInfo
General
Complete name : DVDRips\Kizomba\Nelson & Sophia - Kizomba Levels I and II\Nelson & Sophia - Kizomba I & II.avi
Format : AVI
Format/Info : Audio Video Interleave
File size : 780 MiB
Duration : 1h 52mn
Overall bit rate : 967 Kbps
Writing application : Lavf51.12.1

Video
ID : 0
Format : xvid
Codec ID : xvid
Duration : 1h 52mn
Bit rate : 825 Kbps
Width : 640 pixels
Height : 480 pixels
Display aspect ratio : 4:3
Frame rate : 29.970 fps
Bits/(Pixel*Frame) : 0.090
Stream size : 666 MiB (85%)

Audio
ID : 1
Format : MPEG Audio
Format version : Version 1
Format profile : Layer 3
Mode : Joint stereo
Mode extension : MS Stereo
Codec ID : 55
Codec ID/Hint : MP3
Duration : 1h 52mn
Bit rate mode : Constant
Bit rate : 128 Kbps
Channel(s) : 2 channels
Sampling rate : 44.1 KHz
Stream size : 103 MiB (13%)
Alignment : Aligned on interleaves
Interleave, duration : 26 ms (0.78 video frame)
Writing library : LAME3.97
Скриншоты
Скринлист

Постеры

Соцсети

 

Статистика

Автор: Sid
Добавлен: 03 ноя 2013, 22:32
Размер: 780.31 МБ
Размер: 818 214 662 байт
Сидеров: 142
Личеров: 4
Скачали: 5
Здоровье: 100%
Раздающих: 100%
Скорость скачивания: 0 байт/сек
Скорость раздачи: 0 байт/сек
Последний сидер: 9 месяцев 1 день 17 часов 7 минут 24 секунды назад
Последний личер: 1 месяц 14 дней 23 часа 43 минуты 6 секунд назад
Приватный: Нет (DHT включён)
Скачать торрент
Скачать торрент
[ Размер 15.8 КБ / Просмотров 16 ]

Поделиться


  • Похожие торренты
    Ответы
    Просмотры
    Последнее сообщение

Вернуться в Учимся танцевать