Видео


Сообщение

Видео Потанцуем! Latino 1, 2, 3 [2007, Латиноамериканские танцы, DVDRip, RUS] (Видеоурок)

Сообщение Sid » 03 ноя 2013, 23:25

Потанцуем! Latino 1, 2, 3

Страна: Россия, Москва
Тематика: Латиноамериканские танцы
Тип раздаваемого материала: Видеоурок
Продолжительность: 02:35:44
Год выпуска: 2007

Язык: Русский
Перевод: Не требуется

Описание: Если нужно все сразу - избавиться от проблем в личной жизни, завести друзей, приобщиться к здоровому образу жизни или просто поднять себе настроение, попробуйте танцевать Латиноамериканские танцы!
Программа Latino представлена в трех частях с разными уровнями сложности и включает в себя движения и танцевальные связки пяти танцев: Сальса, Ча-Ча-Ча, Джайв, Самба и Румба.

Latino 1 начального уровня сложности начинается с разминки, в которой прорабатываются движения рук, скручивание бедер, основные шаги и позиции тела, свойственные Латиноамериканским танцам. За время разминки попробуйте просто почувствовать ритм, и у Вас все получится...

Latino 2 для тех, кто уже познакомился с основными элементами латиноамериканских танцев в нашей программе Латино 1, и хотел бы продолжить увлекательное путешествие в мир выразительных и порой очень эротичных движений тела, экспрессии, сочетания легкомысленного веселья и чувственности в более быстром темпе.

Latino 3 поможет почувствовать полную свободу в движениях и возможность выразить себя всеми доступными средствами танца. Основные отличия Латино 3 от Латино 1 и Латино 2 - это сложная техника выполнения новых движений и танцевальных связок, и быстрый темп.

Курс из трех программ "Латино" научит Вас, в конце концов, не бояться смешивать фигуры из разных танцев, легко менять ритмику и скорость движения и свободно владеть телом.
Даже, если Вы никогда не умели танцевать и боитесь смешно выглядеть на танцевальной площадке, включите нашу программу и двигайтесь так, как Вам нравится. Гарантия хорошего настроения - 100%.
И не забудьте, как говорят сами латиноамериканцы: "Эчале сансита!" - "Добавить огоньку!"

Качество : DVDRip
Формат: AVI
Видео кодек: DivX
Аудио кодек: AC3
Видео: 512x384 (1.33:1), 25 fps, DivX Codec 5.05 ~866 kbps avg, 0.18 bit/pixel
Аудио: 48 kHz, AC3 Dolby Digital, 2/0 (L,R) ch, ~256 kbps
Отчет MediaInfo
General
Complete name : G:\латина\Latino_1.avi
Format : AVI
Format/Info : Audio Video Interleave
File size : 412 MiB
Duration : 50mn 49s
Overall bit rate : 1 132 Kbps
Writing application : Nandub v1.0rc2
Writing library : Nandub build 1852/release

Video
ID : 0
Format : MPEG-4 Visual
Format settings, BVOP : Yes
Format settings, QPel : No
Format settings, GMC : No warppoints
Format settings, Matrix : Default (H.263)
Muxing mode : Packed bitstream
Codec ID : DX50
Codec ID/Hint : DivX 5
Duration : 50mn 49s
Bit rate : 867 Kbps
Width : 512 pixels
Height : 384 pixels
Display aspect ratio : 4:3
Frame rate : 25.000 fps
Color space : YUV
Chroma subsampling : 4:2:0
Bit depth : 8 bits
Scan type : Progressive
Bits/(Pixel*Frame) : 0.176
Stream size : 315 MiB (77%)
Writing library : DivX 5.0.5 (UTC 2003-04-24)

Audio
ID : 1
Format : AC-3
Format/Info : Audio Coding 3
Mode extension : CM (complete main)
Codec ID : 2000
Duration : 50mn 48s
Bit rate mode : Constant
Bit rate : 256 Kbps
Channel(s) : 2 channels
Channel positions : Front: L R
Sampling rate : 48.0 KHz
Bit depth : 16 bits
Stream size : 93.0 MiB (23%)
Alignment : Aligned on interleaves
Interleave, duration : 40 ms (1.00 video frame)
Interleave, preload duration : 480 ms

General
Complete name : G:\латина\Latino_2.avi
Format : AVI
Format/Info : Audio Video Interleave
File size : 418 MiB
Duration : 54mn 7s
Overall bit rate : 1 079 Kbps
Writing application : Nandub v1.0rc2
Writing library : Nandub build 1852/release

Video
ID : 0
Format : MPEG-4 Visual
Format settings, BVOP : Yes
Format settings, QPel : No
Format settings, GMC : No warppoints
Format settings, Matrix : Default (H.263)
Muxing mode : Packed bitstream
Codec ID : DX50
Codec ID/Hint : DivX 5
Duration : 54mn 7s
Bit rate : 813 Kbps
Width : 512 pixels
Height : 384 pixels
Display aspect ratio : 4:3
Frame rate : 25.000 fps
Color space : YUV
Chroma subsampling : 4:2:0
Bit depth : 8 bits
Scan type : Progressive
Bits/(Pixel*Frame) : 0.165
Stream size : 315 MiB (75%)
Writing library : DivX 5.0.5 (UTC 2003-04-24)

Audio
ID : 1
Format : AC-3
Format/Info : Audio Coding 3
Mode extension : CM (complete main)
Codec ID : 2000
Duration : 54mn 7s
Bit rate mode : Constant
Bit rate : 256 Kbps
Channel(s) : 2 channels
Channel positions : Front: L R
Sampling rate : 48.0 KHz
Bit depth : 16 bits
Stream size : 99.1 MiB (24%)
Alignment : Aligned on interleaves
Interleave, duration : 40 ms (1.00 video frame)
Interleave, preload duration : 480 ms

General
Complete name : G:\латина\Latino_3.avi
Format : AVI
Format/Info : Audio Video Interleave
File size : 407 MiB
Duration : 50mn 48s
Overall bit rate : 1 120 Kbps
Writing application : Nandub v1.0rc2
Writing library : Nandub build 1853/release

Video
ID : 0
Format : MPEG-4 Visual
Format settings, BVOP : Yes
Format settings, QPel : No
Format settings, GMC : No warppoints
Format settings, Matrix : Default (H.263)
Muxing mode : Packed bitstream
Codec ID : DX50
Codec ID/Hint : DivX 5
Duration : 50mn 48s
Bit rate : 854 Kbps
Width : 512 pixels
Height : 384 pixels
Display aspect ratio : 4:3
Frame rate : 25.000 fps
Color space : YUV
Chroma subsampling : 4:2:0
Bit depth : 8 bits
Scan type : Progressive
Bits/(Pixel*Frame) : 0.174
Stream size : 310 MiB (76%)
Writing library : DivX 5.0.5 (UTC 2003-04-24)

Audio
ID : 1
Format : AC-3
Format/Info : Audio Coding 3
Mode extension : CM (complete main)
Codec ID : 2000
Duration : 50mn 47s
Bit rate mode : Constant
Bit rate : 256 Kbps
Channel(s) : 2 channels
Channel positions : Front: L R
Sampling rate : 48.0 KHz
Bit depth : 16 bits
Stream size : 93.0 MiB (23%)
Alignment : Aligned on interleaves
Interleave, duration : 40 ms (1.00 video frame)
Interleave, preload duration : 480 ms
Скриншоты

Постеры

Соцсети

 

Статистика

Автор: Sid
Добавлен: 03 ноя 2013, 23:25
Размер: 1.21 ГБ
Размер: 1 296 173 056 байт
Сидеров: 46
Личеров: 5
Скачали: 3
Здоровье: 100%
Раздающих: 100%
Скорость скачивания: 0 байт/сек
Скорость раздачи: 0 байт/сек
Последний сидер: 7 месяцев 6 дней 22 часа 29 минут 56 секунд назад
Последний личер: 11 дней 20 часов 47 минут 24 секунды назад
Приватный: Нет (DHT включён)
Скачать торрент
Скачать торрент
[ Размер 12.67 КБ / Просмотров 17 ]

Поделиться


  • Похожие торренты
    Ответы
    Просмотры
    Последнее сообщение

Вернуться в Учимся танцевать