Видео


Сообщение

Видео Oleg Lav | Лечение компьютера простыми средствами (2013) [PCRec]

Сообщение Tutorial » 30 ноя 2013, 01:56

Oleg Lav | Лечение компьютера простыми средствами (2013) [PCRec]

Автор (режиссер): Oleg Lav
Название: Лечение компьютера простыми средствами
Год выпуска: 2013
Жанр: Обучающее видео
Продолжительность: 00:03:28
Качество видео: PCRec
Видеокодек: AVC
Битрейт видео: ~30fps 1002kbps
Размер кадра: 1152x720
Аудиокодек: AAC
Битрейт аудио: 44100Hz stereo 192kbps

Описание:
В видео рассматривается интересная фишка для лечения компа Cureit-ом от DrWeb, когда интернет заблокирован вирусом...
"В проводнике вводим ftp.drweb.com и нажимаем Enter.
У вас заблокирован выход в интернет, хотя на самом деле он есть. Да что уж там. Антивирусная программа на вашем компьютере так же повязана по рукам и ногам. Не как иначе как это происки злобных вирусов. Открываем проводник (напоминаю не браузер) и о чудо мощная утилита по антивирусной защите уже у вас на рабочем столе. Проверяем машину и мочим гада!"
Oleg Lav
Общее
Полное имя : D:\Андрей\Лечение компьютера простыми средствами.mp4
Формат : MPEG-4
Профиль формата : Base Media / Version 2
Идентификатор кодека : mp42
Размер файла : 29,6 Мбайт
Продолжительность : 3 м. 27 с.
Режим общего битрейта : Переменный
Общий поток : 1197 Кбит/сек
Дата кодирования : UTC 2013-10-20 22:41:04
Дата пометки : UTC 2013-10-20 22:41:04
gsst : 0
gstd : 207725
gssd : B2E3D9B0AHH1382595366680968
gshh : r7---sn-gvnuxaxjvh-n8ve.c.youtube.com

Видео
Идентификатор : 1
Формат : AVC
Формат/Информация : Advanced Video Codec
Профиль формата :
Параметр CABAC формата : Да
Параметр ReFrames формата : 1 кадр
Параметр GOP формата : M=1, N=60
Идентификатор кодека : avc1
Идентификатор кодека/Информация : Advanced Video Coding
Продолжительность : 3 м. 27 с.
Битрейт : 1002 Кбит/сек
Максимальный битрейт : 6549 Кбит/сек
Ширина : 1152 пикселя
Высота : 720 пикселей
Соотношение сторон : 1,600
Режим частоты кадров : Постоянный
Частота кадров : 30,000 кадров/сек
Цветовое пространство : YUV
Субдискретизация насыщенности : 4:2:0
Битовая глубина : 8 бит
Тип развёртки : Прогрессивная
Бит/(Пиксели*Кадры) : 0.040
Размер потока : 24,8 Мбайт (84%)
Дата пометки : UTC 2013-10-20 22:41:09

Аудио
Идентификатор : 2
Формат : AAC
Формат/Информация : Advanced Audio Codec
Профиль формата : LC
Идентификатор кодека : 40
Продолжительность : 3 м. 27 с.
Вид битрейта : Переменный
Битрейт : 192 Кбит/сек
Максимальный битрейт : 201 Кбит/сек
Каналы : 2 канала
Расположение каналов : Front: L R
Частота : 44,1 КГц
Метод сжатия : С потерями
Размер потока : 4,75 Мбайт (16%)
Заголовок : IsoMedia File Produced by Google, 5-11-2011
Дата кодирования : UTC 2013-10-20 22:41:07
Дата пометки : UTC 2013-10-20 22:41:09


Скриншоты:



Время раздачи: 24/7 (круглосуточно)

Постеры

Соцсети

 

Статистика

Автор: Tutorial
Добавлен: 30 ноя 2013, 01:56
Размер: 29.63 МБ
Размер: 31 074 147 байт
Сидеров: 0
Личеров: 1
Скачали: 0
Здоровье: ???%
Скорость скачивания: 0 байт/сек
Скорость раздачи: 0 байт/сек
Последний сидер: Нет
Последний личер: 7 дней 2 часа 32 минуты 51 секунду назад
Приватный: Нет (DHT включён)
Сеть и безопасность Скачать торрент
Скачать торрент
[ Размер 19.43 КБ / Просмотров 0 ]

Поделиться


  • Похожие торренты
    Ответы
    Просмотры
    Последнее сообщение

Вернуться в Сеть и безопасность