Видео


Сообщение

Видео Андрей Масалович | 10 уязвимостей в ваших данных: методы взлома (2013) [WEB-DLRip]

Сообщение Tutorial » 30 ноя 2013, 01:59

Андрей Масалович | 10 уязвимостей в ваших данных: методы взлома (2013) [WEB-DLRip]

Автор (режиссер): Андрей Масалович
Название: 10 уязвимостей в ваших данных: методы взлома
Год выпуска: 2013
Жанр: Обучающий, Компьютерная безопасность
Продолжительность: 01:30:00
Качество видео: WEB-DLRip
Видеокодек: MPEG4 (AVC)
Битрейт видео: ~429 Kbps
Размер кадра: 854х480
Аудиокодек: AAC
Битрейт аудио: 254 Kbps, 2 ch

Описание:
Ежегодно компании теряют миллиарды долларов из-за утечки критически важной информации. Несмотря на то, что компании уделяют много внимания вопросам информационной безопасности, любой желающий может получить доступ к конфиденциальным данным даже без применения специальных хакерских средств. В рамках видео известнейший эксперт по информационной безопасности Андрей Масалович покажет 10 приемов, с помощью которых можно воспользоваться уязвимостью интернет-ресурсов.
Андрей Масалович – кандидат физико-математических наук, президент Консорциума Инфорус, руководитель ряда успешных проектов по аналитическому оснащению банков, ФПГ, крупных торговых сетей, государственных организаций. В прошлом – подполковник ФАПСИ, лауреат стипендии РАН "Выдающийся ученый России".
Автор многочисленных публикаций и ведущий семинаров по проблемам поиска и анализа данных в ряде университетов России и США (АНХ, МГУ, МАИ, Harvard University, Stanford University, Georgia Tech University, Texas A&M). Эксперт РФФИ, INTAS, МТЦ ООН, АТЭС.
General
Format : MPEG-4
Format profile : Base Media
Codec ID : isom
File size : 445 MiB
Duration : 1h 30mn
Overall bit rate : 686 Kbps
Encoded date : UTC 2013-10-31 13:46:28
Tagged date : UTC 2013-10-31 13:46:28

Video
ID : 1
Format : AVC
Format/Info : Advanced Video Codec
Format profile :
Format settings, CABAC : Yes
Format settings, ReFrames : 3 frames
Codec ID : avc1
Codec ID/Info : Advanced Video Coding
Duration : 1h 30mn
Bit rate mode : Variable
Bit rate : 429 Kbps
Width : 854 pixels
Height : 480 pixels
Display aspect ratio : 16:9
Frame rate mode : Variable
Frame rate : 29.970 fps
Minimum frame rate : 29.970 fps
Maximum frame rate : 2 500.000 fps
Color space : YUV
Chroma subsampling : 4:2:0
Bit depth : 8 bits
Scan type : Progressive
Bits/(Pixel*Frame) : 0.035
Stream size : 278 MiB (63%)
Encoded date : UTC 2013-10-31 13:46:28
Tagged date : UTC 2013-10-31 13:46:28

Audio
ID : 2
Format : AAC
Format/Info : Advanced Audio Codec
Format profile : LC
Codec ID : 40
Duration : 1h 30mn
Bit rate mode : Variable
Bit rate : 254 Kbps
Channel(s) : 2 channels
Channel positions : Front: L R
Sampling rate : 44.1 KHz
Compression mode : Lossy
Stream size : 165 MiB (37%)
Encoded date : UTC 2013-10-31 13:46:28
Tagged date : UTC 2013-10-31 13:46:28
Скриншоты:



Время раздачи: 24/7 (круглосуточно) - до 5 скачавших, далее по возможности.

Постеры

Соцсети

 

Статистика

Автор: Tutorial
Добавлен: 30 ноя 2013, 01:59
Размер: 445.36 МБ
Размер: 466 995 624 байт
Сидеров: 75
Личеров: 6
Скачали: 3
Здоровье: 100%
Раздающих: 100%
Скорость скачивания: 0 байт/сек
Скорость раздачи: 0 байт/сек
Последний сидер: 3 дня 12 часов 30 минут 58 секунд назад
Последний личер: 3 дня 12 часов 30 минут 58 секунд назад
Приватный: Нет (DHT включён)
Сеть и безопасность Скачать торрент
Скачать торрент
[ Размер 18.27 КБ / Просмотров 20 ]

Поделиться


Вернуться в Сеть и безопасность